<?xml version="1.0" standalone="no"?>
<!DOCTYPE svg PUBLIC "-//W3C//DTD SVG 1.1//EN" "http://www.w3.org/Graphics/SVG/1.1/DTD/svg11.dtd" >
<svg xmlns="http://www.w3.org/2000/svg">
<metadata>Generated by IcoMoon</metadata>
<defs>
<font id="ejicons" horiz-adv-x="512">
<font-face units-per-em="512" ascent="480" descent="-32" />
<missing-glyph horiz-adv-x="512" />
<glyph unicode="&#x20;" horiz-adv-x="256" d="" />
<glyph unicode="&#xe100;" glyph-name="media-smallscreen" horiz-adv-x="521" d="M0 323.797h158.373v156.203zM362.305 480v-156.203h158.373zM520.678 124.204h-158.373v-156.204zM158.373-32v156.203h-158.373z" />
<glyph unicode="&#xe105;" glyph-name="media-mute" d="M472.361 233.91c0-41.29-16.516-80.929-44.594-112.309l23.123-23.123c34.684 36.336 54.503 84.233 54.503 135.433 0 61.109-28.077 117.264-75.974 155.252-6.606 4.955-18.168 4.955-23.123-3.303-4.955-6.607-4.955-18.168 3.303-23.123 39.639-29.729 62.762-77.626 62.762-128.826zM330.322 298.322c26.426-13.213 42.942-39.639 42.942-67.716 0-14.865-4.955-28.077-11.562-41.291l23.123-23.123c13.213 18.168 21.471 41.291 21.471 64.413 0 41.291-23.123 79.278-61.109 97.445-8.258 3.303-18.168 0-21.471-8.258-4.955-8.258-1.651-18.168 6.606-21.471zM249.393 299.974v151.949l-84.232-67.716zM66.064 321.445h-66.064v-184.981h87.535l161.858-130.478v130.477zM447.587-3.923c-6.606 0-13.213 1.651-18.168 6.606l-409.6 409.6c-9.909 9.909-9.909 26.426 0 36.336s24.774 9.909 34.684 0l409.6-409.6c9.909-9.909 9.909-24.774 0-34.684-4.955-4.955-11.562-8.258-16.516-8.258z" />
<glyph unicode="&#xe108;" glyph-name="media-pause" d="M51.2 480h102.4v-512.819h-102.4v512.819zM365.568 480h102.4v-512.819h-102.4v512.819z" />
<glyph unicode="&#xe114;" glyph-name="media-settings-right" d="M161.645-10.788l-51.931 51.932 193.829 193.828-193.828 193.097 51.931 51.931 245.029-245.028-245.029-245.76z" />
<glyph unicode="&#xe135;" glyph-name="media-play" d="M67.368 480l385.617-255.191-385.617-255.461v510.652z" />
<glyph unicode="&#xe141;" glyph-name="media-repeat" d="M407.552 428.8l103.424-81.238-103.424-81.238zM104.106 19.2l-103.082 81.238 103.082 81.238v-162.474zM460.8 227.072v-14.678c0-0.101 0-0.221 0-0.342 0-49.836-40.303-90.259-90.094-90.452h-341.693v-43.69h341.334c73.897 0 133.803 59.906 133.803 133.803v49.834zM43.691 224v13.654c0.956 49.103 40.895 88.564 90.094 88.746h341.351v45.056h-341.334c-73.897 0-133.803-59.906-133.803-133.803v0-47.786z" />
<glyph unicode="&#xe142;" glyph-name="media-shuffle" d="M417.28 400l92.8-72.96-92.8-72.64zM417.28 191.68l92.8-72.96-92.8-72.64zM477.12 103.68h-102.4c-60.183 0.147-112.543 33.498-139.743 82.697l-0.417 0.822-32 60.48c-20.46 38.2-60.018 63.791-105.571 64h-96.989v38.4h96c60.183-0.147 112.543-33.498 139.743-82.697l0.417-0.822 32-60.48c20.46-38.2 60.017-63.791 105.571-64h102.429zM116.16 103.68h-116.16v40.32h116.16c45.707 0.084 85.41 25.707 105.606 63.358l0.315 0.642 33.92 58.56c27.541 50.15 79.916 83.625 140.13 83.84h82.59v-39.36h-84.16c-0.279 0.002-0.608 0.003-0.938 0.003-45.409 0-84.926-25.221-105.308-62.419l-0.313-0.625-32-60.8c-27.566-49.93-79.781-83.25-139.802-83.52h-0.038z" />
<glyph unicode="&#xe600;" glyph-name="uniE600" d="M96.561 160.224v31.888h127.55v-127.55h-31.888v75.733l-106.026-105.23-19.93 19.93 106.026 105.23h-75.734zM444.934 393.802l-105.23-106.026h75.733v-31.888h-127.55v127.55h31.888v-75.733l106.026 106.026 19.132-19.93z" />
<glyph unicode="&#xe601;" glyph-name="uniE601" d="M512 109.866v-45.866h-416v45.866h416zM512 246.4v-45.867h-416v45.867h416zM512 384v-45.866h-416v45.866h416zM42.666 109.866v-45.866h-42.666v45.866h42.666zM42.666 246.4v-45.867h-42.666v45.867h42.666zM42.666 384v-45.866h-42.666v45.866h42.666z" />
<glyph unicode="&#xe602;" glyph-name="uniE602" d="M172.191 254.476v60.952h60.953v-60.952h-60.952zM172.191 132.572v60.952h60.953v-60.952h-60.952zM172.191 10.666v60.952h60.953v-60.952h-60.952zM278.858 254.476v60.952h60.952v-60.952h-60.952zM278.858 132.572v60.952h60.952v-60.952h-60.952zM278.858 10.666v60.952h60.952v-60.952h-60.952zM278.858 376.38v60.952h60.952v-60.952h-60.952zM172.191 376.38v60.952h60.953v-60.952h-60.952z" />
<glyph unicode="&#xe603;" glyph-name="uniE603" d="M0 48h512v-32h-512v32zM512 144v-32h-285.866v32h285.866zM512 240v-32h-285.866v32h285.866zM512 336v-32h-285.866v32h285.866zM512 432v-32h-512v32h512zM85.334 224l-85.334-85.334v170.666l85.334-85.333z" />
<glyph unicode="&#xe604;" glyph-name="uniE604" d="M512 16h-512v32h512v-32zM285.866 144v-32h-285.866v32h285.866zM285.866 240v-32h-285.866v32h285.866zM285.866 336v-32h-285.866v32h285.866zM512 432v-32h-512v32h512zM512 309.333v-170.666l-85.334 85.334 85.334 85.334z" />
<glyph unicode="&#xe605;" glyph-name="uniE605" d="M460.8 381.248h-114.406l-90.394-96.538-90.445 96.538h-114.355l147.584-157.645-146.918-156.851h114.381l89.754 95.821 89.754-95.821h114.304l-146.893 156.851z" />
<glyph unicode="&#xe606;" glyph-name="uniE606" d="M405.334 277.333v-80c-24.534 65.067-86.4 112-160 112-93.867 0-170.667-76.8-170.667-170.667h32c0 76.8 61.867 138.667 138.667 138.667 65.067 0 120.534-45.867 134.4-106.667h-81.067v-32h138.667v138.667h-32z" />
<glyph unicode="&#xe607;" glyph-name="uniE607" d="M106.666 277.333v-80c24.533 65.067 86.4 112 160 112 93.867 0 170.666-76.8 170.666-170.667h-32c0 76.8-61.866 138.667-138.667 138.667-65.067 0-120.534-45.867-134.4-106.667h81.066v-32h-138.667v138.667h32z" />
<glyph unicode="&#xe608;" glyph-name="uniE608" d="M60.008 114.427v219.974h147.2v-24.809h-122.391v-171.182h122.391v-24.809h-147.2zM231.19 260.8l73.601-36.387-73.601-36.387v72.773zM243.595 334.4h208.396v-220.8h-208.396l48.792 24.809h134.796v172.009h-134.796l-48.791 23.983z" />
<glyph unicode="&#xe609;" glyph-name="uniE609" d="M272 272h160v-32h-160v-160h-32v160h-160v32h160v160h32v-160zM80 16v32h352v-32h-352z" />
<glyph unicode="&#xe60a;" glyph-name="uniE60A" d="M256 434.134c19.44 0 37.954-2.777 55.542-7.406s34.25-12.033 49.988-21.291c15.738-9.257 29.623-20.365 42.582-33.325s24.069-26.846 33.325-42.582c9.257-15.738 16.663-32.399 21.291-49.988s7.406-36.102 7.406-55.542-2.777-37.954-7.406-55.542c-4.628-17.589-12.033-34.25-21.291-49.988s-20.365-29.623-33.325-42.582c-12.959-12.959-26.846-24.069-42.582-33.325s-32.399-16.663-49.988-21.291c-17.589-4.628-36.102-7.406-55.542-7.406s-37.953 2.777-55.542 7.406c-17.589 4.628-34.251 12.033-49.988 21.291s-29.623 20.365-42.582 33.325c-12.959 12.959-24.069 26.846-33.325 42.582s-16.663 32.399-21.291 49.988c-4.629 17.589-7.406 36.102-7.406 55.542s2.777 37.953 7.406 55.542c4.629 17.588 12.033 34.25 21.291 49.988s20.365 30.548 33.325 42.582c12.959 12.959 26.845 24.069 42.582 33.325s32.4 16.662 49.988 21.291c17.589 4.628 36.102 7.406 55.542 7.406zM256 39.786c16.663 0 33.325 1.851 49.063 6.479s30.548 10.183 43.507 18.514c13.885 8.331 25.92 17.589 37.027 28.697s20.365 23.142 28.697 37.028c8.331 13.885 13.885 28.697 18.514 43.507 4.628 15.738 6.479 32.399 6.479 49.063s-1.851 33.325-6.479 49.063c-4.628 15.738-10.183 30.548-18.514 43.507-8.331 13.885-17.589 25.919-28.697 37.028s-23.142 20.365-37.028 28.696c-13.885 8.331-28.697 13.885-43.507 18.514-15.738 4.629-32.399 6.48-49.063 6.48s-33.325-1.852-49.063-6.48c-15.738-2.777-30.548-9.257-43.507-16.662-13.885-8.331-25.919-17.589-37.028-28.697s-20.365-23.143-28.697-37.028c-8.331-13.885-13.885-28.697-18.514-43.507-4.629-15.738-6.48-32.399-6.48-49.063s1.852-33.325 6.48-49.063c3.703-16.663 10.183-31.474 17.588-44.433 8.331-13.885 17.588-25.92 28.697-37.027s23.142-20.365 37.028-28.697c13.885-8.331 28.697-13.885 43.507-18.514 16.662-4.628 33.325-7.406 49.988-7.406zM346.719 296.203l-72.204-72.203 72.204-72.204-18.514-18.514-72.204 72.204-72.204-72.204-18.514 18.514 72.204 72.204-72.204 72.204 18.514 18.514 72.204-72.204 72.204 72.204 18.514-18.514z" />
<glyph unicode="&#xe60b;" glyph-name="uniE60B" d="M71.489 428.002l148.128-148.128c9.529 6.93 19.058 12.994 30.32 16.458s22.523 5.197 33.783 5.197c13.86 0 27.719-2.599 39.848-7.796 12.994-5.197 24.255-12.994 33.784-22.522l13.86-13.86 91.822-45.911-193.174-194.906-45.911 91.822-13.859 13.86c-9.529 9.529-17.326 20.789-22.523 33.784s-7.796 25.988-7.796 39.847c0 12.127 1.733 23.389 5.197 33.784 3.465 11.261 9.529 20.79 16.458 30.32l-148.128 148.995c-2.599 2.599-4.331 6.064-4.331 9.529s0.865 6.93 3.465 9.529 6.064 3.465 9.529 3.465c3.465 0 6.93-0.865 9.529-3.465zM342.625 249.554c-7.796 8.662-17.325 14.727-26.853 19.057s-19.924 6.93-32.050 6.93c-11.261 0-20.789-1.733-30.32-6.064s-18.191-9.529-25.121-17.326c-6.93-6.93-12.994-15.593-17.326-25.121s-6.064-19.924-6.064-31.185c0-12.127 2.599-22.522 6.93-32.050s11.261-18.191 19.058-26.853l111.746 112.612zM276.79 60.712l143.797 143.797-58.038 28.587-114.344-115.212 28.587-57.173z" />
<glyph unicode="&#xe60c;" glyph-name="uniE60C" d="M316.722 325.017h27.853v-25.881h-27.853v25.881zM344.575 351.001h27.904v-25.984h-27.904v25.984zM372.479 376.959h27.801v-25.958h-27.801v25.959zM400.281 351.001h27.827v-25.984h-27.827v25.984zM400.281 402.867h27.827v-25.933h-27.827v25.933zM428.082 428.8h27.853v-25.933h-27.853v25.933zM344.575 402.867h27.904v-25.933h-27.904v25.933zM316.722 428.8h27.853v-25.933h-27.853v25.933zM428.082 325.017h27.853v-25.881h-27.853v25.881zM430.898 237.056v-15.104h-76.928v18.509c-7.142 2.739-13.978 6.093-20.48 10.035v-28.544h-73.113v69.581h32.103c-4.019 6.425-7.45 13.338-10.137 20.506h-21.965v80.793h19.482c2.074 6.63 4.762 12.953 7.911 19.046h-231.706v-392.678h393.856v224.87c-6.118-2.841-12.416-5.222-19.021-7.014zM149.759 38.194h-74.599v73.293h74.599v-73.293zM149.759 132.044h-74.599v159.488h74.599v-159.488zM149.759 312.038h-74.599v80.793h74.599v-80.793zM333.491 38.194h-73.113v73.293h73.113v-73.293zM333.491 132.044h-73.113v69.504h73.113v-69.504zM430.898 38.194h-76.928v73.293h76.928v-73.293zM430.898 132.044h-76.928v69.504h76.928v-69.504z" />
<glyph unicode="&#xe60d;" glyph-name="uniE60D" d="M392.154 251.776c-45.005 0-84.352 24.627-105.344 61.133h-30.976v73.113h15.309c0.64 6.4 1.945 12.57 3.558 18.663h-217.344v-385.485h384.384v243.2c-15.155-6.81-31.949-10.624-49.587-10.624zM147.7 37.837h-71.629v75.315h71.629v-75.315zM147.7 133.12h-71.629v71.629h71.629v-71.629zM147.7 312.883h-71.629v73.139h71.629v-73.139zM235.865 37.837h-68.096v75.315h68.096v-75.315zM235.865 133.12h-68.096v71.629h68.096v-71.629zM235.865 312.883h-68.096v73.139h68.096v-73.139zM323.955 37.837h-68.121v75.315h68.121v-75.315zM323.955 133.12h-68.121v71.629h68.121v-71.629zM423.079 37.837h-79.079v75.315h78.669v19.942h-78.669v71.629h79.079v-166.887zM320.012 328.422h26.957v-25.088h-26.957v25.088zM346.969 353.536h26.906v-25.088h-26.906v25.088zM373.875 378.624h26.983v-25.088h-26.983v25.088zM400.832 353.536h26.906v-25.088h-26.906v25.088zM400.832 403.712h26.906v-25.088h-26.906v25.088zM427.738 428.8h26.906v-25.088h-26.906v25.088zM346.969 403.712h26.906v-25.088h-26.906v25.088zM320.012 428.8h26.957v-25.088h-26.957v25.088zM427.738 328.422h26.906v-25.088h-26.906v25.088z" />
<glyph unicode="&#xe60e;" glyph-name="uniE60E" d="M188.737 211.981l-0.179 26.419-57.984-0.333-0.256 48.077-26.522-0.231 0.205-22.887-26.471-0.154 0.153-25.139-26.471-0.179 0.179-26.47 26.445 0.179 0.205-25.139 26.419 0.154 0.153-22.861 26.471 0.128-0.333 48.051zM143.399 263.079l15.283 0.154-0.231 20.224 72.601 0.717 1.255-127.821-72.601-0.717-0.102 15.437-15.309-0.103 1.075-105.805 315.418 3.123-3.098 314.547-315.418-3.123 1.126-116.634zM444.788 142.094l0.589-58.599-61.543-0.615-0.589 58.624 61.543 0.589zM366.81 141.325l0.563-58.624-58.547-0.563-0.563 58.599 58.547 0.589zM219.738 139.866l0.614-58.649-59.853-0.563-0.589 58.599 59.827 0.615zM444.097 214.209l0.538-55.705-61.568-0.589-0.538 55.68 61.568 0.615zM366.119 213.415l0.538-55.68-58.547-0.615-0.538 55.757 58.547 0.538zM443.405 286.324l0.538-55.731-61.568-0.614-0.538 55.731 61.568 0.614zM365.376 285.53l0.563-55.705-58.573-0.589-0.538 55.731 58.547 0.563zM442.535 367.45l0.666-64.717-61.568-0.614-0.64 64.358-16.435-0.128 0.64-64.384-58.573-0.615-0.615 64.743 136.525 1.357zM217.511 365.198l0.64-64.717-59.853-0.589-0.614 64.743 59.827 0.563z" />
<glyph unicode="&#xe60f;" glyph-name="uniE60F" d="M323.276 211.967l0.179 26.419 57.959-0.333 0.307 48.077 26.445-0.231-0.154-22.887 26.471-0.154-0.154-25.139 26.471-0.179-0.205-26.47-26.445 0.179-0.179-25.139-26.419 0.154-0.154-22.861-26.471 0.128 0.281 48.051zM369.74 379.7l-315.418 3.123-3.123-314.522 315.418-3.123 1.050 105.805-15.309 0.103-0.103-15.437-72.627 0.743 1.28 127.795 72.653-0.717-0.281-20.224 15.309-0.179 1.152 116.634zM128.793 141.466l-0.614-58.624-61.568 0.615 0.589 58.599 61.593-0.589zM203.75 140.697l-0.589-58.599-58.573 0.563 0.589 58.624 58.573-0.589zM352.103 139.212l-0.589-58.599-59.853 0.563 0.615 58.649 59.827-0.615zM129.458 213.58l-0.537-55.705-61.594 0.615 0.563 55.706 61.568-0.615zM204.466 212.839l-0.563-55.757-58.573 0.615 0.537 55.705 58.599-0.563zM130.175 285.697l-0.563-55.706-61.568 0.589 0.563 55.731 61.568-0.614zM205.184 284.953l-0.563-55.731-58.573 0.589 0.563 55.705 58.573-0.563zM205.977 366.055l-0.614-64.743-58.599 0.64 0.666 64.384-16.461 0.128-0.614-64.358-61.568 0.614 0.665 64.717 136.525-1.382zM354.356 364.621l-0.666-64.743-59.853 0.589 0.64 64.717 59.879-0.563z" />
<glyph unicode="&#xe610;" glyph-name="uniE610" d="M245.017 157.044l26.573 0.128 0.256-58.189 48.231 0.154 0.077-26.573-23.040-0.103 0.128-26.522-25.241-0.103 0.128-26.573-26.599-0.077-0.077 26.547-25.267-0.077-0.077 26.547-23.014-0.077-0.102 26.599 48.231 0.154zM413.901 112.091v316.723h-315.801v-316.723h106.214v15.334h-15.539v72.883h128.358v-72.858h-20.327v-15.334h117.094zM172.287 351.655h-58.829v61.824h58.829v-61.824zM172.287 276.34h-58.829v58.829h58.829v-58.829zM172.287 127.425h-58.829v60.083h58.829v-60.083zM244.709 351.655h-55.936v61.824h55.936v-61.824zM244.709 276.34h-55.936v58.829h55.936v-58.829zM317.132 351.655h-55.962v61.824h55.962v-61.824zM317.132 276.34h-55.962v58.829h55.962v-58.829zM398.591 276.34h-65.024v58.829h64.666v16.486h-64.666v61.824h65.024v-137.139zM398.591 127.425h-65.024v60.083h65.024v-60.083z" />
<glyph unicode="&#xe611;" glyph-name="uniE611" d="M245.031 290.957l26.547-0.102 0.256 58.189 48.231-0.205 0.077 26.573-23.014 0.102 0.103 26.522-25.216 0.128 0.103 26.573-26.573 0.051-0.077-26.522-25.293 0.051-0.077-26.496-22.989 0.026-0.128-26.573 48.256-0.153zM296.819 335.911v-15.36h20.327v-72.858h-128.358v72.883h15.539v15.36h-106.215v-316.723h315.776v316.697h-117.069zM172.301 34.546h-58.829v61.824h58.829v-61.824zM172.301 112.858h-58.829v58.803h58.829v-58.803zM172.301 260.493h-58.829v60.083h58.829v-60.083zM244.723 34.546h-55.936v61.824h55.936v-61.824zM244.723 112.858h-55.936v58.803h55.936v-58.803zM317.145 34.546h-55.962v61.824h55.962v-61.824zM317.145 112.858h-55.962v58.803h55.962v-58.803zM398.554 34.546h-64.999v61.824h64.666v16.486h-64.666v58.803h64.999v-137.113zM398.554 260.493h-64.999v60.083h64.999v-60.083z" />
<glyph unicode="&#xe612;" glyph-name="uniE612" d="M51.2 418.188v-388.377h409.6v388.377h-409.6zM427.674 265.51h-91.161v73.319h91.161v-73.319zM210.535 168.512v65.101h94.183v-65.127h-94.183zM304.717 136.639v-71.117h-94.183v71.117h94.183zM178.663 168.512h-94.285v65.101h94.285v-65.101zM210.535 265.51v73.319h94.183v-73.319h-94.183zM336.513 233.612h91.161v-65.127h-91.161v65.126zM178.663 338.827v-73.319h-94.285v73.319h94.285zM84.378 136.639h94.285v-71.117h-94.285v71.117zM336.513 65.522v71.117h91.161v-71.117h-91.161z" />
<glyph unicode="&#xe613;" glyph-name="uniE613" d="M291.001 168.872v26.252h175.010v-26.252h-175.010zM45.988 344.757h131.258v25.377h-131.258v-25.377zM45.988 77.866h129.507v28.877h-129.507v-28.877zM203.497 370.134v-26.252h262.515v26.252h-262.515zM203.497 282.629v-26.252h262.515v26.252h-262.515zM204.371 106.743v-28.877h261.641v28.877h-261.641zM115.993 153.995v140.007l-70.004-70.005 70.004-70.005z" />
<glyph unicode="&#xe614;" glyph-name="uniE614" d="M203.497 168.872v26.252h173.26v-26.252h-173.26zM45.988 344.757h131.258v25.377h-131.258v-25.377zM45.988 77.866h129.507v28.877h-129.507v-28.877zM203.497 370.134v-26.252h262.515v26.252h-262.515zM203.497 282.629v-26.252h262.515v26.252h-262.515zM204.371 106.743v-28.877h261.641v28.877h-261.641zM45.988 294.005v-140.007l70.004 70.005-70.004 70.005z" />
<glyph unicode="&#xe615;" glyph-name="uniE615" d="M434.286 135.703l-8.45-41.403h-305.029l147.868 127.588-132.659 131.813h278.836v-41.403h24.505v94.636h-354.037v-77.737l123.363-123.363-155.472-135.193v-29.574h385.301l20.279 94.635h-24.505z" />
<glyph unicode="&#xe616;" glyph-name="uniE616" d="M178.701 117.5c-10.306-10.307-23.19-18.036-33.496-20.613-10.306-5.153-20.613-5.153-33.496-5.153-20.613 0-36.073 5.153-46.379 15.46-10.306 7.73-15.46 19.755-15.46 37.791 0 10.306 2.577 18.036 5.153 25.766s10.306 12.883 15.46 18.036c7.73 5.153 15.46 7.73 23.19 10.306 5.153 2.577 15.46 2.577 28.343 5.153 25.766 2.577 43.803 7.73 54.109 10.307 0 5.153 0 7.73 0 7.73 0 12.883-2.577 23.19-7.73 28.343-10.306 10.306-20.613 12.883-36.073 12.883s-25.766-2.577-30.919-7.73c-7.73-5.153-12.883-15.46-15.46-28.343l-30.919 5.153c2.577 12.883 7.73 25.766 12.883 33.496s15.46 15.46 25.766 20.613c12.883 5.153 25.766 7.73 41.226 7.73s28.343-2.577 38.649-5.153c10.306-7.73 18.036-12.883 20.613-18.036 5.153-7.73 7.73-12.883 10.306-23.19 0-5.153 2.577-15.46 2.577-30.92v-42.943c0-30.919 0-48.097 2.577-55.827s2.577-15.46 7.73-23.19h-33.496c-2.577 6.872-5.153 14.601-5.153 22.33zM176.125 190.504c-12.883-5.153-28.343-10.307-51.532-12.883-12.883-2.577-20.613-5.153-25.766-7.73s-10.306-5.153-12.883-10.306c-2.577-5.153-5.153-10.307-5.153-15.46 0-7.73 2.577-15.46 10.306-20.613 5.153-5.153 15.46-7.73 25.766-7.73 12.883 0 23.19 2.577 30.919 7.73 10.306 5.153 15.46 12.883 20.613 23.19 2.577 7.73 5.153 18.036 5.153 33.496v10.306h2.577zM230.234 94.31l95.335 261.957h36.073l100.488-261.957h-38.649l-28.343 79.017h-103.065l-28.343-79.017h-33.496zM302.379 200.81h82.452l-25.766 73.863c-7.73 23.19-12.883 40.368-18.036 53.25-2.577-18.036-7.73-33.496-12.883-50.673l-25.766-76.44z" />
<glyph unicode="&#xe617;" glyph-name="uniE617" d="M50.798 95.102l93.978 263.831h35.351l101.738-263.831h-37.936l-27.59 78.459h-101.739l-28.452-78.459h-35.35zM121.498 201.152h83.632l-25.004 73.286c-7.76 23.279-15.519 40.524-18.106 56.043-2.587-18.106-7.76-35.351-12.933-50.87l-27.59-78.459zM418.954 117.519c-10.346-10.346-23.279-18.106-32.764-23.279s-20.693-5.173-32.764-5.173c-20.693 0-35.351 5.173-45.697 15.519s-15.519 23.279-15.519 40.524c0 10.346 2.587 18.106 5.173 25.003 5.173 7.76 10.346 12.933 15.519 18.106 7.76 5.173 12.933 7.76 23.279 10.346 5.173 2.587 15.519 2.587 27.591 5.173 25.003 2.587 43.109 7.76 53.457 10.346 0 5.173 0 7.76 0 7.76 0 12.933-2.587 23.279-7.76 27.59-7.76 7.76-20.693 10.346-35.351 10.346-15.519 0-25.003-2.587-30.176-7.76-7.76-5.173-12.933-15.519-15.519-27.59l-30.176 7.76c2.587 12.933 7.76 25.003 12.933 32.763s15.519 15.519 25.003 20.693c12.933 5.173 25.003 7.76 40.524 7.76s27.591-2.587 37.937-5.173c10.346-7.76 18.106-12.933 23.279-18.106s7.76-12.933 10.346-23.279c0-5.173 2.587-15.519 2.587-30.176v-43.11c0-30.176 0-48.283 2.587-58.63 2.587-7.76 5.173-15.519 7.76-23.279h-30.176c-9.485 8.622-9.485 15.519-12.070 25.866zM416.368 191.668c-10.346-5.173-27.591-7.76-48.283-12.933-12.933-2.587-20.693-5.173-25.003-7.76-5.173-2.587-10.346-5.173-12.933-10.346s-5.173-10.346-5.173-15.519c0-7.76 2.587-15.519 10.346-23.279 5.173-5.173 15.519-7.76 27.591-7.76s23.279 2.587 30.176 7.76c10.346 5.173 15.519 12.933 20.693 23.279 2.587 7.76 5.173 18.106 5.173 32.764v12.933h-2.587z" />
<glyph unicode="&#xe618;" glyph-name="uniE618" d="M339.801 302.887l79.36-79.462c25.575-25.549-30.208-48.538-30.208-111.642 0-47.949 77.261-100.762 77.261-19.353v94.515c0 95.027-126.413 115.942-126.413 115.942zM380.505 223.322c-10.317 10.393-41.882 41.907-64.717 64.743-0.538 61.44-34.227 148.915-94.951 148.915-57.677 0-79.181-53.427-79.181-87.040h15.872c0 18.457 11.673 71.219 63.309 71.219 43.136 0 72.167-63.386 77.952-116.019-4.839 4.813-8.32 8.295-8.32 8.295 2.329-15.667 1.843-28.903 1.024-35.431 7.526-4.915 12.493-13.389 12.493-23.040 0-15.334-12.339-27.673-27.75-27.673-15.257 0-27.673 12.339-27.673 27.673 0 9.856 5.248 18.432 12.953 23.296 4.071 12.083 9.677 35.661 0.922 63.181l-16 16c-22.425 22.451-44.467 1.459-44.467 1.459l-141.389-141.338c-14.797-14.822 12.954-66.637 62.054-115.687 49.024-49.050 100.838-76.8 115.635-61.978 0 0 133.453 133.453 140.595 140.467 7.040 7.168 18.637 25.959 1.639 42.957z" />
<glyph unicode="&#xe619;" glyph-name="uniE619" d="M480 448v-448h-448v448h448zM512 480h-512v-512h512v512zM182.4 339.2l25.6 23.466 121.6-112-121.6-112-25.6 23.466 96 88.534zM128 117.334h256v-32h-256v32zM416 384v-320h-320v320h320zM448 416h-384v-384h384v384z" />
<glyph unicode="&#xe61a;" glyph-name="uniE61A" d="M51.201 35.060l97.126 138.624-93.082 130.534h86.989l47.667-73.984 50.227 73.984h83.763l-91.367-127.488 99.712-141.671h-87.45l-54.861 83.379-55.296-83.379h-83.43zM460.801 280.205v-28.672h-109.338c1.152 10.777 4.736 21.069 10.624 30.797 5.939 9.625 17.613 22.528 35.123 38.554 14.029 12.902 22.656 21.683 25.805 26.317 4.301 6.349 6.477 12.647 6.477 18.816 0 6.912-1.843 12.186-5.632 15.872-3.738 3.712-8.935 5.555-15.462 5.555-6.553 0-11.725-1.971-15.565-5.837-3.84-3.891-5.99-10.317-6.656-19.328l-31.079 3.098c1.817 16.973 7.68 29.107 17.433 36.505 9.805 7.373 21.965 11.059 36.608 11.059 16.103 0 28.647-4.249 37.863-12.825 9.139-8.55 13.773-19.2 13.773-31.923 0-7.219-1.357-14.106-3.942-20.633-2.637-6.528-6.784-13.363-12.493-20.557-3.763-4.787-10.599-11.623-20.403-20.557-9.83-8.909-16.103-14.797-18.739-17.689-2.611-2.97-4.736-5.863-6.375-8.551h61.978z" />
<glyph unicode="&#xe61b;" glyph-name="uniE61B" d="M51.187 102.247l99.277 141.671-95.155 133.401h88.96l48.666-75.673 51.303 75.673h85.529l-93.261-130.329 101.862-144.717h-89.421l-56.013 85.171-56.474-85.197h-85.273zM460.813 99.942v-29.261h-111.744c1.255 11.034 4.864 21.581 10.906 31.462 6.067 9.856 17.971 22.963 35.84 39.347 14.336 13.209 23.168 22.169 26.445 26.88 4.327 6.502 6.553 12.954 6.553 19.303 0 7.040-1.92 12.416-5.735 16.179-3.815 3.815-9.088 5.658-15.846 5.658-6.605 0-11.93-1.971-15.872-5.913-3.891-3.968-6.195-10.547-6.784-19.738l-31.769 3.149c1.894 17.28 7.859 29.773 17.843 37.325 9.959 7.526 22.425 11.264 37.376 11.264 16.435 0 29.286-4.352 38.707-13.056 9.319-8.73 14.080-19.635 14.080-32.589 0-7.399-1.408-14.438-4.019-21.145-2.714-6.682-6.963-13.645-12.774-20.966-3.865-4.864-10.88-11.853-20.864-20.966-10.061-9.063-16.461-15.155-19.123-18.125-2.688-3.021-4.889-5.913-6.528-8.755h63.309z" />
<glyph unicode="&#xe61c;" glyph-name="uniE61C" d="M184.046 63.389v316.084l-117.353-117.353-17.988 17.988 148.19 148.19 148.19-148.19-17.988-17.988-117.353 117.353v-290.385h177.315v-25.698c0 0-203.012 0-203.012 0zM463.295 76.238c0-31.223-25.311-56.536-56.536-56.536s-56.536 25.311-56.536 56.536c0 31.223 25.311 56.536 56.536 56.536s56.536-25.311 56.536-56.536z" />
<glyph unicode="&#xe61d;" glyph-name="uniE61D" d="M60.133 370.467h-12.133v-354.467h354.467v354.467h-342.333zM377.333 42h-303.333v277.333h303.333v-277.333zM221.333 432v-26h216.667v-216.667h26v242.667z" />
<glyph unicode="&#xe61e;" glyph-name="uniE61E" d="M64.268 414.933v-381.866h383.464v381.866h-383.464zM423.766 57.033h-335.532v255.644h335.532v-255.644z" />
<glyph unicode="&#xe61f;" glyph-name="uniE61F" d="M372.8 215.201l-116.8-116.799-116.799 116.799 16.8 16.8 87.999-88v272h24v-272l87.201 88 17.601-16.8zM148 32v24h216v-24h-216z" />
<glyph unicode="&#xe620;" glyph-name="uniE620" d="M434.286 432c3.962 0 7.924-0.99 11.885-1.981 3.962-1.981 6.933-3.962 8.914-5.943 2.971-2.971 4.952-5.943 5.943-8.915 1.981-4.952 2.971-8.914 2.971-12.876v-386.286h-362.514l-53.486 53.486v332.8c0 3.962 0.99 7.924 1.981 11.886 1.981 3.962 3.962 6.933 5.943 8.914 2.971 2.971 5.943 4.952 8.914 5.943 4.953 1.981 8.915 2.971 12.876 2.971h356.572zM434.286 402.286h-29.714v-178.286h-297.143v178.286h-29.715v-320.914l35.657-35.657h23.772v118.857h208v-118.857h89.143v356.572zM137.143 253.714h237.714v148.571h-237.714v-148.571zM315.428 134.857h-148.571v-89.143h29.715v59.428h29.714v-59.428h89.143v89.143z" />
<glyph unicode="&#xe621;" glyph-name="uniE621" d="M51.2 352h409.6v-256h-409.6v256zM76.8 121.6h358.4v177.494l-179.2-89.6-179.2 89.6v-177.494zM431.786 326.4h-351.574l175.786-87.893 175.786 87.894z" />
<glyph unicode="&#xe622;" glyph-name="uniE622" d="M152 16v416l208-208-208-208z" />
<glyph unicode="&#xe623;" glyph-name="uniE623" d="M360 432v-416l-208 208 208 208z" />
<glyph unicode="&#xe624;" glyph-name="uniE624" d="M457.933 16l-403.867 416v-413.4l403.867-2.6z" />
<glyph unicode="&#xe625;" glyph-name="uniE625" d="M480 112h-448l224 224 224-224z" />
<glyph unicode="&#xe626;" glyph-name="uniE626" d="M360 432v-416l-208 208 208 208z" />
<glyph unicode="&#xe627;" glyph-name="uniE627" d="M31.532 336h448.933l-224-224-224.933 224z" />
<glyph unicode="&#xe628;" glyph-name="uniE628" d="M152 16v416l208-208-208-208z" />
<glyph unicode="&#xe629;" glyph-name="uniE629" d="M251.667 304.6l204.533-288.6h-408.2l203.667 288.6zM464 432h-416v-26h416v26z" />
<glyph unicode="&#xe62a;" glyph-name="uniE62A" d="M175.4 219.667l288.6 204.533v-408.2l-288.6 203.667zM48 432v-416h26v416h-26z" />
<glyph unicode="&#xe62b;" glyph-name="uniE62B" d="M260.333 143.4l-204.533 288.6h408.2l-203.667-288.6zM48 16h416v26h-416v-26z" />
<glyph unicode="&#xe62c;" glyph-name="uniE62C" d="M336.6 228.333l-288.6-204.533v408.2l288.6-203.667zM464 16v416h-26v-416h26z" />
<glyph unicode="&#xe62d;" glyph-name="uniE62D" d="M399 230.067c7.8-5.2 15.6-12.133 21.667-19.067s12.133-14.733 16.467-23.4 7.8-17.333 10.4-26.867 3.467-19.067 3.467-28.6c0-16.467-3.467-31.2-9.533-45.933s-14.733-26.867-25.133-37.267-22.533-19.067-37.267-25.133c-13.867-4.333-28.6-7.8-45.067-7.8-12.133 0-24.267 1.733-35.533 5.2s-22.533 8.667-32.067 15.6c-9.533 6.933-18.2 14.733-26 24.267s-13 19.933-17.333 32.067h-162.067v312.867h52v26h26v-26h182v26h26v-26h52v-175.933zM87 380v-52h286v52h-26v-26h-26v26h-182v-26h-26v26h-26zM217.867 120c0 4.333-0.867 8.667-0.867 13 0 11.267 1.733 22.533 5.2 33.8s7.8 21.667 14.733 31.2h-19.933v26h26v-17.333c5.2 6.933 12.133 13 18.2 18.2 6.933 5.2 13.867 9.533 21.667 13.867 7.8 3.467 15.6 6.933 24.267 8.667s17.333 2.6 26 2.6c13.867 0 26.867-2.6 39-6.933v58.933h-286v-182h131.733zM113 276h26v-26h-26v26zM113 224h26v-26h-26v26zM165 276h26v-26h-26v26zM165 224h26v-26h-26v26zM165 172h26v-26h-26v26zM243 250h-26v26h26v-26zM334 42c13 0 24.267 2.6 35.533 6.933 11.267 5.2 20.8 11.267 28.6 19.933 7.8 7.8 14.733 18.2 19.933 28.6 5.2 11.267 6.933 22.533 6.933 35.533s-2.6 24.267-6.933 35.533c-5.2 11.267-11.267 20.8-19.933 28.6-7.8 7.8-18.2 14.733-28.6 19.933-11.267 4.333-22.533 6.933-35.533 6.933s-24.267-2.6-35.533-6.933c-11.267-5.2-20.8-11.267-28.6-19.933-7.8-7.8-14.733-18.2-19.933-28.6-5.2-11.267-6.933-22.533-6.933-35.533s2.6-24.267 6.933-35.533c5.2-11.267 11.267-20.8 19.933-28.6 7.8-7.8 18.2-14.733 28.6-19.933 11.267-4.333 22.533-6.933 35.533-6.933zM295 250h-26v26h26v-26zM347 146h39v-26h-65v78h26v-52z" />
<glyph unicode="&#xe62e;" glyph-name="uniE62E" d="M138.666 400h23.466v-23.466h187.734v23.466h23.466v-23.466h70.4v-328.534h-375.466v328.534h70.4v23.466zM373.334 329.6h-23.466v23.466h-187.734v-23.466h-23.466v23.466h-46.934v-46.934h328.534v46.934h-46.934v-23.466zM420.266 282.666h-328.534v-211.2h328.534v211.2zM138.666 235.734v23.466h23.466v-23.466h-23.466zM138.666 188.8v23.466h23.466v-23.466h-23.466zM138.666 141.866v23.466h23.466v-23.466h-23.466zM209.066 235.734v23.466h23.466v-23.466h-23.466zM209.066 188.8v23.466h23.466v-23.466h-23.466zM209.066 141.866v23.466h23.466v-23.466h-23.466zM209.066 94.934v23.466h23.466v-23.466h-23.466zM279.466 235.734v23.466h23.466v-23.466h-23.466zM279.466 188.8v23.466h23.466v-23.466h-23.466zM279.466 141.866v23.466h23.466v-23.466h-23.466zM279.466 94.934v23.466h23.466v-23.466h-23.466zM349.866 188.8v23.466h23.466v-23.466h-23.466zM349.866 141.866v23.466h23.466v-23.466h-23.466zM349.866 94.934v23.466h23.466v-23.466h-23.466z" />
<glyph unicode="&#xe62f;" glyph-name="uniE62F" d="M143.139 46.523l177.477 177.477-177.477 177.477 24.123 24.123 201.6-201.6-201.6-201.6-24.123 24.123z" />
<glyph unicode="&#xe630;" glyph-name="uniE630" d="M344.738 22.4l-201.6 201.6 201.6 201.6 24.123-24.123-177.477-177.477 177.477-177.477-24.123-24.123z" />
<glyph unicode="&#xe631;" glyph-name="uniE631" d="M61.427 347.733l194.573-194.573 194.573 194.573 26.447-26.446-221.020-221.020-221.020 221.020 26.447 26.447z" />
<glyph unicode="&#xe632;" glyph-name="uniE632" d="M74 16l148.2 416h56.333l159.467-416h-59.8l-44.2 123.933h-160.333l-43.333-123.933h-56.333zM185.8 184.133h131.733l-39.867 116.133c-12.133 36.4-24.267 64.133-27.733 88.4-4.333-27.733-12.133-56.333-19.933-79.733l-44.2-124.8z" />
<glyph unicode="&#xe633;" glyph-name="uniE633" d="M402.134 233.6c1.067 1.066 1.067 1.066 1.067 2.133 4.267 4.267 9.6 8.534 13.866 10.666 5.334 3.2 11.733 4.267 19.2 4.267 6.4 0 10.666-1.066 17.067-3.2 5.334-2.133 10.666-4.267 14.933-8.534v29.866c-5.334 3.2-10.666 4.267-17.067 5.334-5.334 1.066-10.666 2.133-18.134 2.133-10.666 0-22.4-2.133-32-5.333s-17.067-9.6-24.534-14.934c-5.334-5.333-10.666-11.733-12.8-20.267l38.4-2.133zM238.934 233.6c1.066 1.066 2.133 3.2 3.2 3.2 4.267 4.267 7.466 7.466 10.667 9.6 4.267 3.2 10.666 4.267 16 4.267s10.666-1.066 16-4.267c4.267-3.2 8.534-6.4 10.666-10.666 1.067-1.066 1.067-2.133 1.067-3.2h35.2c-2.134 7.466-5.334 13.867-9.6 20.267s-10.666 10.666-18.134 14.934c-7.466 3.2-16 6.4-25.6 6.4-21.334 0-36.267-9.6-46.934-27.733h-1.066v91.733h-32v-105.6l40.534 1.066zM101.334 251.733c10.666 0 17.067-3.2 21.334-8.534 3.2-3.2 4.266-6.4 5.333-10.666h32c-2.133 11.733-5.333 22.4-11.733 28.8-9.6 9.6-22.4 11.733-39.466 11.733-9.6 0-18.133-1.067-26.666-3.2-9.6-2.133-17.067-5.334-24.534-10.666v-27.733c6.4 5.333 12.8 10.666 21.334 11.733 6.4 6.4 14.933 8.534 22.4 8.534zM300.8 174.933c-1.067-4.267-3.2-9.6-5.334-12.8-3.2-5.334-7.466-9.6-10.666-11.733-4.267-4.267-10.666-4.267-18.134-4.267-5.334 0-10.666 1.067-13.867 3.2-4.267 2.134-8.534 4.267-10.667 8.534-3.2 3.2-5.333 7.466-7.466 10.666-1.066 3.2-2.133 5.334-2.133 7.466h-32v-53.334h32v20.267h1.066c9.6-16 23.466-24.534 40.534-24.534 10.666 0 20.267 2.134 28.8 6.4s13.866 10.666 19.2 17.067c5.334 7.466 9.6 14.933 10.666 25.6 1.067 2.134 1.067 4.267 1.067 6.4l-33.067 1.067zM437.334 145.067c-7.466 0-12.8 1.067-18.134 4.267s-10.666 5.334-13.866 10.666c-4.267 4.267-7.466 9.6-9.6 14.933 0 1.067 0 2.134-1.067 2.134h-33.067c1.067-4.267 2.134-9.6 4.267-12.8 4.267-9.6 8.534-16 13.866-22.4 6.4-6.4 12.8-10.666 22.4-13.866s18.134-5.334 28.8-5.334c7.466 0 13.866 1.067 20.267 3.2 7.466 2.134 12.8 4.267 19.2 7.466v27.733c-4.267-3.2-10.666-7.466-14.933-9.6-6.4-5.334-12.8-6.4-18.134-6.4zM130.133 174.933c0-3.2-1.066-6.4-2.133-9.6-2.133-4.267-3.2-8.534-7.466-10.666-3.2-3.2-6.4-6.4-10.666-8.534s-9.6-3.2-12.8-3.2c-4.266 0-6.4 0-9.6 1.067-2.133 2.134-4.266 3.2-6.4 5.334s-4.266 4.267-5.334 6.4c-1.067 2.134-1.067 4.267-1.067 8.534s1.067 8.534 2.133 10.666h-32c-1.066-5.334-2.133-9.6-2.133-14.933 0-7.466 1.066-11.733 3.2-17.067 3.2-5.334 5.334-10.666 9.6-11.733 2.133-3.2 8.533-6.4 13.866-8.534s10.666-3.2 18.133-3.2c10.666 0 18.133 2.134 24.534 6.4 7.466 4.267 12.8 10.666 18.134 18.134v0-22.4h32v52.267h-32c0 0 0 1.067 0 1.067zM42.666 216.534h426.666v-18.134h-426.666v18.134z" />
<glyph unicode="&#xe634;" glyph-name="uniE634" d="M386 432v-234c0-18.2-3.467-34.667-10.4-50.267s-16.467-29.467-27.733-41.6-25.133-20.8-41.6-27.733c-15.6-6.933-32.067-10.4-50.267-10.4s-34.667 3.467-50.267 10.4c-15.6 6.933-29.467 16.467-41.6 27.733s-20.8 25.133-27.733 41.6c-6.933 15.6-10.4 32.067-10.4 50.267v234h26v-234c0-14.733 2.6-27.733 7.8-40.733s13-23.4 22.533-32.933c9.533-9.533 20.8-16.467 32.933-22.533s26-7.8 40.733-7.8 27.733 2.6 40.733 7.8 23.4 13 32.933 22.533c9.533 9.533 16.467 20.8 22.533 32.933s7.8 26 7.8 40.733v234h26zM126 42h260v-26h-260v26z" />
<glyph unicode="&#xe635;" glyph-name="uniE635" d="M407.654 348.849c-2.822 1.41-5.644 4.232-8.464 5.644s-5.644 2.822-9.875 5.643-14.108 7.054-21.161 9.876c-4.232 1.41-8.464 2.822-12.697 4.232s-8.464 1.41-12.697 2.822c-4.232 1.41-9.875 1.41-15.518 2.822s-9.875 0-15.518 0c-26.803 0-50.787-4.232-71.948-14.108s-39.501-22.571-53.609-39.501c-14.107-15.518-26.803-35.269-33.858-57.841-4.232-11.286-7.054-22.572-8.464-33.858s-4.232-25.394-4.232-38.091c0-9.875 0-19.752 1.41-29.625s4.232-18.339 7.054-25.394 14.107-29.625 25.393-40.911c11.286-11.286 23.983-19.752 39.501-25.394 14.107-5.644 31.037-8.464 49.377-8.464 5.644 0 11.286 0 16.93 0s9.875 1.41 14.108 1.41c5.644 1.41 9.875 1.41 14.108 2.822s8.464 1.41 12.697 2.822c4.232 1.41 8.464 2.822 12.697 4.232s7.054 2.822 11.286 4.232c4.232 1.41 7.054 2.822 11.286 5.644s7.054 4.232 9.875 5.644l-9.875-46.555c-7.054-2.822-15.518-5.644-22.572-8.464s-15.518-4.232-23.983-5.644c-16.93-4.232-35.269-5.644-55.019-5.644-23.983 0-45.145 4.232-64.894 12.697-19.751 7.054-36.679 18.339-50.787 33.858-14.108 14.108-23.983 32.447-32.447 52.197-7.054 19.752-11.286 43.733-11.286 69.127 0 33.858 5.644 63.485 15.518 90.288 9.876 28.216 25.393 50.787 45.145 71.948 19.751 19.752 42.323 35.269 69.126 46.555 28.215 11.286 57.841 16.929 90.288 16.929 11.286 0 21.161 0 31.037-1.41s19.752-2.822 28.216-5.644 32.447-9.875 43.733-15.518l-9.875-49.377z" />
<glyph unicode="&#xe636;" glyph-name="uniE636" d="M293.143 238.857c14.857 0 29.714-2.971 43.581-8.915s25.752-13.867 35.657-23.772 17.829-21.791 23.772-35.657 8.914-27.733 8.914-43.581-2.971-29.714-8.914-43.581-13.867-25.752-23.772-35.657-21.791-17.829-35.657-23.772-28.724-7.924-43.581-7.924h-186.209v416h186.209c12.876 0 25.752-2.971 37.638-7.924s21.791-11.886 30.704-20.8 15.848-18.819 20.8-30.704 7.924-24.762 7.924-37.638-2.971-25.752-7.924-37.638-11.885-21.791-20.8-30.704-18.819-15.847-30.704-20.8-24.762-6.933-37.638-6.933zM196.076 253.714h44.571c7.924 0 15.848 1.981 22.781 4.952s13.867 7.924 18.819 12.876 9.904 11.885 12.876 18.819 4.952 14.857 4.952 22.781c0 7.924-1.981 15.848-4.952 22.781s-7.924 13.867-12.876 18.819-11.885 9.904-18.819 12.876-14.857 4.953-22.781 4.953h-44.572v-118.857zM255.505 75.429c7.924 0 15.848 1.981 22.781 4.952s13.867 7.924 18.819 12.876 9.904 11.885 12.876 18.819 4.952 14.857 4.952 22.781c0 7.924-1.981 15.848-4.952 22.781s-7.924 13.867-12.876 18.819-11.885 9.904-18.819 12.876-14.857 4.952-22.781 4.952h-59.428v-118.857h59.428z" />
<glyph unicode="&#xe637;" glyph-name="uniE637" d="M74.667 277.333v-138.666h138.667v32h-81.067c13.867 60.8 69.334 106.666 134.4 106.666 76.8 0 138.667-61.866 138.667-138.667h32c0 93.867-76.8 170.667-170.667 170.667-73.6 0-135.466-46.934-160-112v80h-32z" />
<glyph unicode="&#xe638;" glyph-name="uniE638" d="M405.333 277.333v-80c-24.534 65.067-86.4 112-160 112-93.867 0-170.667-76.8-170.667-170.667h32c0 76.8 61.867 138.667 138.667 138.667 65.067 0 120.534-45.867 134.4-106.667h-81.067v-32h138.667v138.667h-32z" />
<glyph unicode="&#xe639;" glyph-name="uniE639" d="M360 432v-416l-208 208 208 208z" />
<glyph unicode="&#xe63a;" glyph-name="uniE63A" d="M480 112h-448l224 224 224-224z" />
<glyph unicode="&#xe63b;" glyph-name="uniE63B" d="M32 336h448l-224-224-224 224z" />
<glyph unicode="&#xe63c;" glyph-name="uniE63C" d="M48.592 27.733v392.534h293.971v-154.271h-28.284v125.988h-237.406v-335.968h238.263v125.988h28.284v-154.271h-294.829zM375.989 174.291l35.14 35.997h-138.843v28.284h138.843l-35.14 35.14 19.712 19.712 67.708-69.421-67.708-69.421-19.712 19.712z" />
<glyph unicode="&#xe63d;" glyph-name="uniE63D" d="M317.533 187.603c18.2-6.067 34.667-15.6 50.267-26.867 14.733-11.267 27.733-24.267 38.133-39.867s18.2-31.2 24.267-49.4 8.667-36.4 8.667-55.467h-26c0 22.533-4.333 42.467-12.133 61.533s-19.067 35.533-32.933 49.4c-13.867 13.867-30.333 25.133-49.4 32.933s-40.733 12.133-63.267 12.133c-14.733 0-28.6-1.733-41.6-5.2s-26-8.667-37.267-15.6-21.667-14.733-31.2-24.267c-9.533-9.533-17.333-19.933-24.267-31.2s-12.133-24.267-15.6-37.267-6.067-27.733-6.067-42.467h-26c0 19.933 2.6 38.133 8.667 56.333s13.867 33.8 24.267 49.4c10.4 14.733 23.4 27.733 38.133 39s31.2 20.8 49.4 26.867c-10.4 6.067-19.933 13-28.6 20.8s-15.6 17.333-21.667 26.867-10.4 20.8-13 32.067c-3.467 11.267-5.2 22.533-5.2 34.667 0 18.2 3.467 34.667 10.4 50.267 6.933 16.467 15.6 30.333 27.733 41.6s25.133 20.8 41.6 27.733c15.6 6.933 32.067 10.4 50.267 10.4s34.667-3.467 50.267-10.4c16.467-6.933 30.333-15.6 41.6-27.733s20.8-25.133 27.733-41.6c6.933-15.6 10.4-32.067 10.4-50.267 0-12.133-1.733-23.4-5.2-34.667s-7.8-21.667-13.867-32.067c-6.067-9.533-13-19.067-21.667-26.867-6.933-7.8-16.467-14.733-26.867-20.8zM151.133 302.002c0-14.733 2.6-27.733 7.8-40.733s13-23.4 22.533-32.933c9.533-9.533 20.8-16.467 32.933-22.533s26-7.8 40.733-7.8 27.733 2.6 40.733 7.8 23.4 13 32.933 22.533c9.533 9.533 16.467 20.8 22.533 32.933s7.8 26 7.8 40.733c0 14.733-2.6 27.733-7.8 40.733s-13 23.4-22.533 32.933c-9.533 9.533-20.8 16.467-32.933 22.533s-26 7.8-40.733 7.8-27.733-2.6-40.733-7.8-23.4-13-32.933-22.533c-9.533-9.533-16.467-20.8-22.533-32.933s-7.8-26-7.8-40.733z" />
<glyph unicode="&#xe63e;" glyph-name="uniE63E" d="M408.8 375.938v-355.671h-305.6v355.671h101.867c0 6.906 1.727 13.813 4.316 19.855s6.043 11.222 11.222 16.402c4.316 4.317 10.359 8.632 16.403 11.222s12.949 4.316 19.855 4.316c6.906 0 13.813-1.727 19.855-4.316s11.222-6.043 16.402-11.222c4.317-4.316 8.632-10.359 11.222-16.402s4.317-12.949 4.317-19.855h100.14zM382.902 350.039h-25.036v-50.933h-203.733v50.933h-25.036v-304.737h254.667v304.737zM180.031 325.004h152.8v25.035h-50.933v25.898c0 3.453-0.863 6.906-1.727 10.359-1.727 3.454-3.454 6.043-5.18 7.77-2.589 2.589-5.18 4.317-7.77 5.18-3.454 1.727-6.043 1.727-10.36 1.727s-6.906-0.862-10.359-1.727c-3.453-1.727-6.043-3.454-7.77-5.18-2.589-2.589-4.316-5.18-5.179-7.77-1.727-3.454-1.727-6.043-1.727-10.359v-25.036h-50.934v-25.898zM240.462 107.459l83.738 107.046c0.863 0.863 0.863 1.727 0.863 2.589s-0.863 1.727-1.727 1.727l-14.676 11.222c-0.863 1.727-1.727 1.727-2.589 1.727s-1.727 0-2.589-0.863l-64.746-84.601-37.984 40.574c-0.863 0.863-1.727 0.863-2.589 0.863s-1.727 0-2.589-0.863l-13.813-12.949c-0.863-0.863-0.863-1.727-0.863-2.589s0-1.727 0.863-2.589l58.703-61.293z" />
<glyph unicode="&#xe63f;" glyph-name="uniE63F" d="M255.506 427.733l218.569-218.568-20.769-20.769-19.78 18.791v-186.921h-148.35v148.349h-59.34v-148.35h-148.35v186.921l-18.791-18.791-20.769 20.769 217.579 218.568zM403.855 49.937v186.921l-148.35 148.349-148.35-148.349v-186.921h89.010v148.35h118.68v-148.35h89.010z" />
<glyph unicode="&#xe640;" glyph-name="uniE640" d="M53.6 103.147h63.36v-55.147h-63.36c0 0 0 55.147 0 55.147zM167.413 103.147h63.36v-55.147h-63.36v55.147zM281.226 103.147h63.36v-55.147h-63.36v55.147zM395.040 103.147h63.36v-55.147h-63.36v55.147zM167.413 202.88h63.36v-55.147h-63.36v55.147zM281.226 202.88h63.36v-55.147h-63.36v55.147zM395.040 202.88h63.36v-55.147h-63.36v55.147zM281.226 301.44h63.36v-55.147h-63.36v55.147zM395.040 301.44h63.36v-55.147h-63.36v55.147zM395.040 400h63.36v-55.147h-63.36c0 0 0 55.147 0 55.147z" />
<glyph unicode="&#xe641;" glyph-name="uniE641" d="M340.067 432l-138.667-416h-27.733l138.667 416h27.733zM204 185c0 12.133 1.733 21.667 6.067 30.333 4.333 7.8 9.533 14.733 16.467 19.933l12.133 36.4c-1.733-0.867-3.467-1.733-6.067-1.733-11.267-5.2-20.8-11.267-28.6-19.933s-14.733-18.2-19.933-28.6-6.067-23.4-6.067-36.4 2.6-24.267 6.933-35.533c2.6-5.2 5.2-10.4 8.667-15.6l12.133 36.4c-0.867 5.2-1.733 9.533-1.733 14.733zM301.933 232.667c-0.867-2.6-2.6-4.333-4.333-6.933l-15.6-44.2c9.533 4.333 17.333 10.4 25.133 17.333 7.8 7.8 14.733 18.2 19.933 28.6s6.933 22.533 6.933 35.533-2.6 24.267-6.933 35.533c-0.867 2.6-1.733 4.333-3.467 6.067l-15.6-47.667c-0.867-8.667-2.6-17.333-6.067-24.267zM457.067 220.533c-5.2 11.267-11.267 20.8-19.933 28.6s-18.2 14.733-28.6 19.933-22.533 6.933-35.533 6.933h-13v-26c10.4 0 19.933-0.867 29.467-3.467s17.333-6.067 25.133-11.267 13-12.133 17.333-19.933 6.067-18.2 6.067-30.333c0-8.667-1.733-17.333-5.2-25.133s-7.8-14.733-13.867-20.8-13-10.4-20.8-13.867c-7.8-3.467-16.467-5.2-25.133-5.2h-104c-2.6 0-4.333 0-6.933 0l-8.667-25.133c5.2-0.867 10.4-1.733 15.6-1.733h104c13 0 24.267 2.6 35.533 6.933s20.8 11.267 28.6 19.933 14.733 18.2 19.933 28.6 6.933 23.4 6.933 36.4-2.6 24.267-6.933 35.533zM97.4 212.733c-6.933 5.2-13 12.133-17.333 19.933s-6.067 18.2-6.067 30.333c0 8.667 1.733 17.333 5.2 25.133s7.8 14.733 13.867 20.8 13 10.4 20.8 13.867c7.8 3.467 16.467 5.2 25.133 5.2h104c5.2 0 10.4-0.867 14.733-1.733l8.667 25.133c-7.8 1.733-15.6 2.6-23.4 2.6h-104c-13 0-24.267-2.6-35.533-6.933s-20.8-11.267-28.6-19.933-14.733-18.2-19.933-28.6-6.933-22.533-6.933-35.533 2.6-24.267 6.933-35.533 11.267-20.8 19.933-28.6 18.2-14.733 28.6-19.933 22.533-6.933 35.533-6.933h13v26c-10.4 0-19.933 0.867-29.467 3.467s-18.2 6.067-25.133 11.267z" />
<glyph unicode="&#xe642;" glyph-name="uniE642" d="M230.4 172.8v25.6c10.24 0 19.626 0.853 29.013 3.413s17.067 5.974 24.747 11.094c6.827 5.12 12.8 11.947 17.067 19.626s5.974 17.92 5.974 29.867c0 8.534-1.707 17.066-5.12 24.747s-7.68 14.506-13.654 20.48-12.8 10.24-20.48 13.654-16.214 5.12-24.746 5.12h-102.4c-8.534 0-17.067-1.707-24.746-5.12s-14.507-7.68-20.48-13.654-10.24-12.8-13.653-20.48c-3.413-7.68-5.12-16.214-5.12-24.747 0-11.947 1.707-21.334 5.974-29.867 4.266-7.68 10.24-14.506 17.067-19.626s15.36-8.534 24.746-11.094c9.386-2.56 18.773-3.413 29.014-3.413v-25.6h-12.8c-12.8 0-23.894 2.56-34.987 6.827-11.094 5.12-20.48 11.094-28.16 19.627-7.68 7.68-14.507 17.92-19.627 28.16-4.267 11.094-6.827 22.186-6.827 34.987s2.56 23.893 6.827 34.987c5.12 11.093 11.093 20.48 19.627 28.16 7.68 7.68 17.92 14.506 28.16 19.626 11.094 4.267 22.186 6.827 34.987 6.827h102.4c12.8 0 23.893-2.56 34.987-6.827 11.094-5.12 20.48-11.093 28.16-19.626 7.68-7.68 14.507-17.92 19.627-28.16 5.12-11.094 6.827-22.187 6.827-34.987s-2.56-23.893-6.827-34.987c-5.12-11.093-11.094-20.48-19.627-28.16-7.68-7.68-17.92-14.507-28.16-19.627-11.094-4.267-22.187-6.827-34.987-6.827h-12.8zM358.4 275.2v-25.6c10.24 0 19.627-0.853 29.014-3.413s17.067-5.974 24.747-11.094c6.827-5.12 12.8-11.946 17.067-19.626s5.974-17.92 5.974-29.866c0-8.534-1.707-17.067-5.12-24.747s-7.68-14.507-13.654-20.48-12.8-10.24-20.48-13.654-16.214-5.12-24.747-5.12h-102.4c-8.534 0-17.066 1.707-24.746 5.12s-14.506 7.68-20.48 13.654-10.24 12.8-13.654 20.48c-3.413 7.68-5.12 16.214-5.12 24.747 0 11.947 1.707 21.334 5.974 29.866 4.267 7.68 10.24 14.506 17.066 19.626s15.36 8.534 24.746 11.094c9.387 2.56 18.774 3.413 29.014 3.413v25.6h-12.8c-12.8 0-23.893-2.56-34.987-6.827-11.094-5.12-20.48-11.094-28.16-19.626-7.68-7.68-14.506-17.92-19.626-28.16-4.267-11.094-6.827-22.187-6.827-34.986s2.56-23.894 6.827-34.986c5.12-11.094 11.094-20.48 19.626-28.16 7.68-7.68 17.92-14.507 28.16-19.627 11.094-5.12 22.186-6.827 34.987-6.827h102.4c12.8 0 23.894 2.56 34.986 6.827 11.094 5.12 20.48 11.094 28.16 19.627 7.68 7.68 14.507 17.92 19.627 28.16 5.12 11.094 6.827 22.187 6.827 34.986s-2.56 23.894-6.827 34.986c-5.12 11.094-11.094 20.48-19.627 28.16-7.68 7.68-17.92 14.506-28.16 19.626-11.094 4.267-22.187 6.827-34.986 6.827h-12.8z" />
<glyph unicode="&#xe643;" glyph-name="uniE643" d="M256 10.666c-19.478 0-38.957 2.783-56.579 7.421-18.55 4.637-35.246 12.058-51.014 21.334s-30.609 20.406-43.594 33.391c-12.986 12.986-24.117 27.826-33.391 43.594s-16.696 32.463-21.334 51.014c-4.638 18.55-7.42 37.101-7.42 56.579s2.783 38.029 7.42 56.579c4.638 18.55 12.057 35.247 21.334 51.014s20.406 30.609 33.391 43.594c12.986 12.986 27.826 24.117 43.595 33.391s32.463 16.696 51.014 21.334c18.55 4.637 37.101 7.421 56.579 7.421s38.029-2.783 56.579-7.421c18.55-4.638 35.247-12.058 51.014-21.334s30.609-20.406 43.594-33.391c12.986-12.986 24.117-27.826 33.391-43.594s16.696-32.463 21.334-51.014c4.637-18.55 7.421-37.101 7.421-56.579s-2.783-38.957-7.421-56.579c-4.637-18.55-12.058-35.247-21.334-51.014s-20.406-30.609-33.391-43.594c-12.986-12.986-27.826-24.117-43.594-33.391s-32.463-16.696-51.014-21.334c-18.55-4.637-37.101-7.421-56.579-7.421zM256 410.435c-16.696 0-33.391-1.856-49.16-6.493s-30.609-11.13-44.522-18.55c-13.913-8.348-26.898-18.55-38.029-29.681s-21.334-24.117-29.681-38.030c-8.348-13.913-14.841-28.753-18.55-44.522-4.638-15.769-6.492-32.463-6.492-49.159s1.856-33.391 6.493-49.159c4.638-15.769 11.13-30.609 18.55-44.522 8.348-13.913 17.623-25.971 29.681-38.029 11.131-11.13 24.117-21.334 38.030-29.681s28.754-14.841 44.522-18.55c15.768-4.637 32.463-6.493 49.159-6.493s33.391 1.856 49.159 6.493c15.769 4.637 30.609 11.13 44.522 18.55 13.913 8.348 25.971 17.623 38.029 29.682 11.13 11.13 21.334 24.117 29.681 38.029s14.841 28.753 18.55 44.522c4.637 15.769 6.493 32.463 6.493 49.159s-1.856 33.391-6.493 49.16c-4.637 15.768-11.13 30.609-18.55 44.522-8.348 13.913-17.623 25.971-29.682 38.030-11.13 11.13-24.117 21.334-38.029 29.681s-28.753 14.841-44.522 18.55c-15.769 4.637-32.463 6.493-49.16 6.493zM256 224v133.565h-26.899v-160.464h106.666v26.899h-79.769z" />
<glyph unicode="&#xe644;" glyph-name="uniE644" d="M410.116 230.926c0-0.865 0-2.597 0-3.463s0-2.597 0-3.463 0-2.597 0-3.463 0-2.597 0-3.463l52.816-32.901-32.036-77.925-60.608 13.853c-3.463-3.463-6.927-6.927-10.389-10.389l13.853-60.608-77.925-32.036-32.901 52.816c-0.865 0-2.597 0-3.463 0s-2.597 0-3.463 0-2.597 0-3.463 0-2.597 0-3.463 0l-32.901-52.816-77.925 32.036 13.853 60.608c-3.463 3.463-6.927 6.927-10.389 10.389l-60.608-13.853-32.035 77.925 52.816 32.901c0 0.865 0 2.597 0 3.463s0 2.597 0 3.463 0 2.597 0 3.463 0 2.597 0 3.463l-52.816 32.901 32.035 77.925 60.608-13.853c3.463 3.463 6.927 6.927 10.389 10.389l-13.853 60.608 77.925 32.036 32.901-52.816c0.865 0 2.597 0 3.463 0s2.597 0 3.463 0 2.597 0 3.463 0 2.597 0 3.463 0l32.901 52.816 77.925-32.036-13.853-60.608c3.463-3.463 6.927-6.927 10.389-10.389l60.608 13.853 32.036-77.925-52.816-32.901zM385.873 204.086c0 3.463 0.865 6.061 0.865 9.524s0 6.061 0 9.524c0 3.463 0 6.061 0 9.524s-0.865 6.061-0.865 9.524l47.62 29.438-17.317 42.425-55.413-12.988c-4.329 5.196-8.658 9.524-12.988 13.853s-9.524 8.658-14.719 12.988l12.988 55.413-42.425 17.317-30.305-47.62c-3.463 0-6.061 0.865-9.524 0.865s-6.061 0-9.524 0c-3.463 0-6.061 0-9.524 0s-6.061-0.865-9.524-0.865l-29.439 47.62-42.425-17.317 12.988-55.413c-5.196-4.329-9.524-8.658-13.853-12.988s-8.658-9.524-12.988-14.719l-55.413 12.988-17.317-42.425 49.352-28.573c0-3.463-0.865-6.061-0.865-9.524s0-6.061 0-9.524c0-3.463 0-6.061 0-9.524s0.865-6.061 0.865-9.524l-47.62-29.438 17.317-42.425 55.413 12.988c4.329-5.195 8.658-9.524 12.988-13.853s9.524-8.658 14.72-12.988l-12.988-55.413 42.425-17.317 30.304 47.62c3.463 0 6.061-0.865 9.524-0.865s6.061 0 9.524 0c3.463 0 6.061 0 9.524 0s6.061 0.865 9.524 0.865l29.438-47.62 42.425 17.317-12.988 55.413c5.195 4.329 9.524 8.658 13.853 12.988s8.658 9.524 12.988 14.719l55.413-12.988 17.317 42.425-49.352 28.573zM256 299.326c10.389 0 20.781-1.732 29.438-6.061 9.524-4.329 17.317-9.524 24.243-16.451s12.122-14.719 16.45-24.243c4.329-9.524 6.061-19.047 6.061-29.439s-1.731-20.781-6.061-29.438c-4.329-9.524-9.524-17.317-16.45-24.243s-14.719-12.122-24.243-16.45c-9.524-4.329-19.048-6.061-29.439-6.061s-20.78 1.731-29.439 6.061c-9.524 4.329-17.316 9.524-24.243 16.45s-12.121 14.719-16.451 24.243c-4.329 9.524-6.061 19.048-6.061 29.438s1.732 20.78 6.061 29.439c4.329 9.524 9.524 17.316 16.451 24.243s14.72 12.122 24.243 16.451c8.658 4.329 19.048 6.061 29.439 6.061zM256 169.452c7.793 0 14.719 1.731 20.781 4.329s12.122 6.927 17.317 11.255 8.658 10.389 11.255 17.317 4.329 13.853 4.329 20.781-1.731 14.72-4.329 20.78-6.927 12.121-11.255 17.316-10.389 8.658-17.317 11.255-13.853 4.329-20.78 4.329-14.72-1.732-20.78-4.329-12.121-6.927-17.316-11.255-8.658-10.389-11.255-17.316-4.329-13.853-4.329-20.78 1.732-14.719 4.329-20.781 6.927-12.122 11.255-17.317 10.389-8.658 17.316-11.255 12.988-4.329 20.78-4.329z" />
<glyph unicode="&#xe645;" glyph-name="uniE645" d="M438 276v-260h-208v26h-156v338h104c0 6.933 1.733 13.867 4.333 19.933s6.933 12.133 11.267 16.467 10.4 8.667 16.467 11.267c6.067 2.6 13 4.333 19.933 4.333s13.867-1.733 19.933-4.333c6.067-2.6 12.133-6.933 16.467-11.267s8.667-10.4 11.267-16.467c2.6-6.067 4.333-13 4.333-19.933h104v-104h52zM230 68v208h130v78h-26v-52h-208v52h-26v-286h130zM152 354v-26h156v26h-52c0 3.467 0 6.933 0 11.267s0 7.8 0 11.267-0.867 7.8-1.733 11.267c-0.867 3.467-2.6 6.933-4.333 9.533s-4.333 5.2-7.8 6.933-6.933 1.733-12.133 1.733c-7.8 0-13-1.733-16.467-5.2s-6.067-7.8-7.8-13c-1.733-5.2-1.733-11.267-1.733-17.333s0-11.267 0-16.467h-52zM412 250h-156v-208h156v208z" />
<glyph unicode="&#xe646;" glyph-name="uniE646" d="M326.2 354l111.8-111.8v-226.2h-260v78h-104v338h148.2l78-78h26zM100 120h78v234h85.8l-52 52h-111.8v-286zM204 42h208v182h-104v104h-104v-286zM334 309.8v-59.8h59.8l-59.8 59.8z" />
<glyph unicode="&#xe647;" glyph-name="uniE647" d="M335.733 177.2l50.267-161.2-130 100.533-130-100.533 50.267 161.2-128.267 98.8h159.467l48.533 156 48.533-156h159.467l-128.267-98.8zM336.6 87.067c-5.2 16.467-10.4 33.8-15.6 50.267s-10.4 32.933-15.6 50.267c13.867 10.4 27.733 20.8 41.6 31.2s26.867 20.8 40.733 32.067h-102.267l-29.467 94.467-29.467-95.333h-102.267c13.867-10.4 27.733-20.8 40.733-32.067s26.867-20.8 41.6-31.2c-5.2-16.467-10.4-33.8-15.6-50.267s-10.4-32.933-15.6-50.267l80.6 62.4 80.6-61.533z" />
<glyph unicode="&#xe648;" glyph-name="uniE648" d="M389.467 270.8c4.333-0.867 8.667-2.6 12.133-5.2s6.933-5.2 9.533-8.667c2.6-3.467 4.333-6.933 6.067-11.267s1.733-8.667 1.733-13v-99.667c0-16.467-3.467-31.2-9.533-45.933-6.067-13.867-14.733-26-25.133-36.4s-22.533-19.067-37.267-25.133c-13.867-6.067-29.467-9.533-45.933-9.533-19.933 0-38.133 3.467-54.6 11.267s-32.067 18.2-45.933 32.067l-95.333 95.333c-3.467 3.467-6.933 7.8-8.667 13s-3.467 10.4-3.467 15.6c0 6.067 0.867 11.267 3.467 15.6 1.733 5.2 5.2 9.533 8.667 13s7.8 6.933 13 8.667c5.2 2.6 10.4 3.467 15.6 3.467s10.4-0.867 15.6-3.467 9.533-5.2 13-8.667c3.467-3.467 6.933-6.933 11.267-10.4 3.467-3.467 6.933-6.933 11.267-10.4v200.2c0 5.2 0.867 10.4 2.6 15.6s4.333 9.533 7.8 13c3.467 3.467 7.8 6.933 12.133 8.667 5.2 2.6 10.4 3.467 16.467 3.467 5.2 0 10.4-0.867 15.6-3.467 4.333-1.733 8.667-5.2 12.133-8.667s6.067-7.8 8.667-12.133c1.733-4.333 3.467-9.533 3.467-15.6v-90.133l125.667-31.2zM392.933 232.667c0 3.467-0.867 6.067-2.6 7.8-1.733 2.6-4.333 3.467-6.933 4.333l-120.467 31.2c0-2.6 0-5.2 0-7.8s0-6.067-0.867-8.667c-0.867-2.6-1.733-4.333-3.467-6.933-2.6-1.733-5.2-2.6-8.667-2.6s-6.933 0.867-9.533 3.467c-2.6 2.6-3.467 5.2-3.467 9.533v130c0 3.467-0.867 6.933-3.467 9.533-3.467 2.6-6.067 3.467-9.533 3.467s-6.933-0.867-9.533-3.467c-2.6-2.6-3.467-5.2-3.467-9.533v-211.467c0-3.467-0.867-6.067-1.733-8.667s-2.6-5.2-4.333-6.933c-1.733-1.733-4.333-3.467-6.933-4.333s-5.2-1.733-8.667-1.733c-2.6 0-6.067 0.867-8.667 1.733s-5.2 2.6-6.933 5.2l-27.733 28.6c-2.6 2.6-6.067 4.333-10.4 4.333s-6.933-1.733-10.4-4.333c-2.6-2.6-4.333-6.067-4.333-10.4s1.733-6.933 4.333-10.4l96.2-96.2c11.267-11.267 23.4-19.933 37.267-26s28.6-8.667 44.2-8.667c13 0 24.267 2.6 35.533 6.933 11.267 5.2 20.8 11.267 28.6 19.933 7.8 7.8 14.733 18.2 19.933 28.6 5.2 11.267 6.933 22.533 6.933 35.533v97.933z" />
<glyph unicode="&#xe649;" glyph-name="uniE649" d="M369.219 123.784c5.032 0 10.064-0.839 15.096-3.354s8.387-5.032 11.741-8.387c3.354-3.354 5.87-7.548 8.387-11.741s3.354-9.226 3.354-15.096-0.839-10.064-3.354-15.096-5.032-8.387-8.387-11.741c-3.354-3.354-7.548-5.87-11.741-8.387s-10.064-1.678-15.096-1.678-10.064 0.839-15.096 3.354-8.387 5.032-11.741 8.387c-3.354 3.354-5.87 7.548-8.387 11.741s-2.516 9.226-2.516 14.257c0 4.193 0.839 8.387 2.516 12.58h-105.669c1.678-4.194 2.516-8.387 2.516-12.58 0-5.032-0.839-10.064-3.355-15.096s-5.032-8.387-8.387-11.741c-3.355-3.354-7.548-5.87-11.742-8.387s-9.226-2.516-14.257-2.516-10.064 0.839-15.096 3.354-8.387 5.032-11.742 8.387c-3.355 3.354-5.87 7.548-8.387 11.741s-2.516 9.226-2.516 14.257c0 7.548 1.678 14.257 5.87 20.127s9.226 10.902 15.934 14.257l-85.541 254.945h-36.9v25.159h55.351l16.773-50.318h330.423l-58.705-176.114h-213.014l16.774-50.318h166.889zM135.24 325.058l41.932-125.795h203.789l41.932 125.796h-287.653zM205.685 86.046c0 3.354-0.839 6.709-3.355 9.226s-5.87 3.354-9.226 3.354-6.709-0.839-9.226-3.354-3.355-5.87-3.355-9.226 0.839-6.709 3.355-9.226 5.032-3.354 9.226-3.354 6.709 0.839 9.226 3.354 3.355 5.87 3.355 9.226zM369.219 73.466c3.354 0 6.709 0.839 9.226 3.354s3.354 5.032 3.354 9.226-0.839 6.709-3.354 9.226-5.87 3.354-9.226 3.354-6.709-0.839-9.226-3.354-3.354-5.87-3.354-9.226 0.839-6.709 3.354-9.226 5.87-3.354 9.226-3.354z" />
<glyph unicode="&#xe64a;" glyph-name="uniE64A" d="M369.216 123.783c5.032 0 10.064-0.839 15.096-3.354s8.387-5.032 11.741-8.387 5.87-7.548 8.387-11.741 3.354-9.226 3.354-15.096-0.839-10.064-3.354-15.096-5.032-8.387-8.387-11.741-7.548-5.87-11.741-8.387-10.064-1.678-15.096-1.678-10.064 0.839-15.096 3.354-8.387 5.032-11.741 8.387-5.87 7.548-8.387 11.741-2.516 9.226-2.516 14.257c0 4.193 0.839 8.387 2.516 12.58h-105.669c1.678-4.194 2.516-8.387 2.516-12.58 0-5.032-0.839-10.064-3.355-15.096s-5.032-8.387-8.387-11.741-7.548-5.87-11.742-8.387-9.226-2.516-14.257-2.516c-5.032 0-10.064 0.839-15.096 3.354s-8.387 5.032-11.742 8.387-5.87 7.548-8.387 11.741-2.516 9.226-2.516 14.257c0 7.548 1.678 14.257 5.87 20.127s9.226 10.902 15.934 14.257l-85.541 254.945h-36.9v25.159h55.351l16.773-50.318h330.423l-58.705-176.114h-213.014l16.774-50.318h166.888zM135.237 325.057l41.932-125.796h203.789l41.932 125.796h-287.653zM205.682 86.044c0 3.354-0.839 6.709-3.355 9.226s-5.87 3.354-9.226 3.354-6.709-0.839-9.226-3.354-3.355-5.87-3.355-9.226 0.839-6.709 3.355-9.226 5.032-3.354 9.226-3.354 6.709 0.839 9.226 3.354 3.355 5.87 3.355 9.226zM369.216 73.464c3.354 0 6.709 0.839 9.226 3.354s3.354 5.032 3.354 9.226-0.839 6.709-3.354 9.226-5.87 3.354-9.226 3.354-6.709-0.839-9.226-3.354-3.354-5.87-3.354-9.226 0.839-6.709 3.354-9.226 5.87-3.354 9.226-3.354z" />
<glyph unicode="&#xe64b;" glyph-name="uniE64B" d="M397.858 146.151h-118.503l40.655-88.229-86.499-39.789-41.519 90.823-77.849-76.118v397.029l283.715-283.715zM285.409 70.897l-46.709 101.204h96.014l-194.622 194.622v-272.471l59.685 58.819 45.844-100.338 39.789 18.164z" />
<glyph unicode="&#xe64c;" glyph-name="uniE64C" d="M453.334 26.666h-394.666l197.333 394.666 197.333-394.666zM238.841 258.319v-120.116h34.319v120.116h-34.319zM238.841 78.144h34.319v34.319h-34.319v-34.319z" />
<glyph unicode="&#xe64d;" glyph-name="uniE64D" d="M464 30.733c0-3.467-0.867-6.933-3.467-9.533s-5.2-5.2-9.533-5.2c-3.467 0-6.933 0.867-9.533 3.467l-159.467 159.467c-13-10.4-26.867-19.067-42.467-24.267s-32.067-8.667-48.533-8.667c-13 0-26 1.733-38.133 5.2s-23.4 7.8-33.8 14.733c-10.4 6.067-20.8 13.867-29.467 22.533s-15.6 18.2-22.533 28.6-10.4 21.667-13.867 33.8-5.2 25.133-5.2 38.133c0 13 1.733 26 5.2 38.133s7.8 23.4 14.733 33.8 13.867 19.933 22.533 28.6 18.2 17.333 28.6 23.4c10.4 6.067 21.667 11.267 33.8 14.733 12.133 2.6 25.133 4.333 38.133 4.333s26-1.733 38.133-5.2c12.133-3.467 23.4-7.8 33.8-14.733 10.4-6.067 19.933-13.867 28.6-22.533s16.467-18.2 22.533-28.6 11.267-21.667 14.733-33.8 5.2-25.133 5.2-38.133c0-17.333-2.6-32.933-8.667-48.533s-13.867-29.467-24.267-42.467c1.733-1.733 6.067-6.067 11.267-11.267s13-12.133 20.8-19.933c7.8-7.8 16.467-16.467 26-26s19.067-19.067 28.6-28.6c9.533-9.533 19.067-19.067 27.733-28.6s17.333-17.333 24.267-25.133c6.933-7.8 13-13.867 16.467-18.2 6.067-6.067 7.8-8.667 7.8-9.533zM191 172c16.467 0 31.2 3.467 45.933 9.533 13.867 6.067 26.867 14.733 37.267 25.133s19.067 22.533 25.133 37.267 9.533 29.467 9.533 45.933c0 16.467-3.467 31.2-9.533 45.933s-14.733 25.133-26 36.4-22.533 18.2-37.267 25.133c-13.867 6.067-28.6 8.667-45.067 8.667s-31.2-2.6-45.933-8.667c-13.867-6.933-26-14.733-36.4-25.133s-19.067-22.533-25.133-37.267-9.533-29.467-9.533-45.933c0-16.467 3.467-31.2 9.533-45.933s13.867-26 25.133-36.4 22.533-19.067 37.267-25.133c13.867-6.067 28.6-9.533 45.067-9.533zM125.999 302h130v-26h-130v26z" />
<glyph unicode="&#xe64e;" glyph-name="uniE64E" d="M460.533 38.533c2.6-2.6 3.467-5.2 3.467-9.533 0-3.467-0.867-6.933-3.467-9.533s-5.2-3.467-9.533-3.467-6.933 0.867-9.533 3.467l-159.467 159.467c-13-10.4-26.867-19.067-42.467-24.267s-32.067-8.667-48.533-8.667c-13 0-26 1.733-38.133 5.2s-23.4 7.8-33.8 14.733c-10.4 6.067-20.8 13-29.467 21.667s-15.6 19.067-21.667 29.467-11.267 21.667-14.733 33.8-5.2 25.133-5.2 38.133c0 13 1.733 26 5.2 38.133s7.8 23.4 14.733 33.8 13.867 19.933 22.533 28.6 18.2 16.467 28.6 22.533c10.4 6.067 21.667 11.267 33.8 14.733s25.133 5.2 38.133 5.2 26-1.733 38.133-5.2c12.133-3.467 23.4-7.8 33.8-14.733 10.4-6.067 20.8-13 29.467-21.667s15.6-19.067 22.533-29.467 11.267-21.667 14.733-33.8 4.333-25.133 4.333-38.133c0-17.333-2.6-32.933-8.667-48.533s-13.867-29.467-24.267-42.467l159.467-159.467zM191 172c16.467 0 31.2 3.467 45.933 9.533 13.867 6.067 26.867 14.733 37.267 25.133s19.067 22.533 25.133 37.267 9.533 29.467 9.533 45.933c0 16.467-3.467 31.2-9.533 45.933s-14.733 25.133-26 35.533-22.533 19.067-37.267 25.133c-13.867 6.067-28.6 9.533-45.067 9.533s-31.2-3.467-45.933-9.533c-13.867-6.067-26-13.867-36.4-25.133s-19.067-22.533-25.133-37.267-9.533-28.6-9.533-45.067c0-16.467 3.467-31.2 9.533-45.933s13.867-26 25.133-36.4 22.533-19.067 37.267-25.133c13.867-6.067 28.6-9.533 45.067-9.533zM204 302h52v-26h-52v-52h-26v52h-52v26h52v52h26v-52z" />
<glyph unicode="&#xe64f;" glyph-name="uniE64F" d="M358.957 220.289l-90.899 89.971v-222.609h-25.043v222.609l-90.899-89.971-16.696 16.696 120.579 120.579 120.579-120.579-17.623-16.696zM256 10.666c-19.478 0-38.957 2.783-56.579 7.421-18.55 4.637-35.246 12.058-51.014 21.334s-30.609 20.406-43.594 33.391c-12.986 12.986-24.117 27.826-33.391 43.594s-16.696 32.463-21.334 51.014c-4.638 18.55-7.42 37.101-7.42 56.579s2.783 38.957 7.42 56.579c4.638 18.55 12.057 35.247 21.334 51.014s20.406 30.609 33.391 43.594c12.986 12.986 27.826 24.117 43.595 33.391s32.463 16.696 51.014 21.334c18.55 4.637 37.101 7.421 56.579 7.421s38.957-2.783 56.579-7.421c18.55-4.638 35.247-12.058 51.014-21.334s30.609-20.406 43.594-33.391c12.986-12.986 24.117-27.826 33.391-43.594s16.696-32.463 21.334-51.014c4.637-18.55 7.421-37.101 7.421-56.579s-2.783-38.957-7.421-56.579c-4.637-18.55-12.058-35.247-21.334-51.014s-20.406-30.609-33.391-43.594c-12.986-12.986-27.826-24.117-43.594-33.391s-32.463-16.696-51.014-21.334c-17.623-4.637-37.101-7.421-56.579-7.421zM256 408.579c-16.696 0-33.391-1.856-49.16-6.493s-30.609-11.13-44.522-18.55c-13.913-8.348-25.97-17.623-37.102-28.753s-21.334-24.117-28.754-37.102-13.913-28.753-18.55-44.522c-4.638-15.769-6.492-32.463-6.492-49.159s1.856-33.391 6.493-49.159 11.13-30.609 18.55-44.522c8.348-13.913 17.623-25.971 28.754-37.101s24.117-21.334 37.102-28.753c13.913-8.348 28.754-13.913 44.522-18.55s32.463-6.493 49.159-6.493c16.696 0 33.391 1.856 49.159 6.493s30.609 11.13 44.522 18.55c13.913 8.348 25.971 17.623 37.101 28.753s21.334 24.117 28.753 37.101c8.348 13.913 13.913 28.753 18.55 44.522s6.493 32.463 6.493 49.16-1.856 33.391-6.493 49.16c-4.637 15.768-11.13 30.609-18.55 44.522-8.348 13.913-17.623 25.971-28.753 37.101s-24.117 21.334-37.101 28.754c-13.913 8.348-28.753 13.913-44.522 18.55s-32.463 6.493-49.16 6.493z" />
<glyph unicode="&#xe650;" glyph-name="uniE650" d="M259.711 326.957l-89.971-90.899h222.609v-25.043h-222.609l89.97-90.899-16.696-16.696-120.579 120.579 120.579 120.579 16.696-17.623zM469.334 224c0-19.478-2.783-38.957-7.421-56.579-4.637-18.55-12.058-35.247-21.334-51.014s-20.406-30.609-33.391-43.594c-12.986-12.986-27.826-24.117-43.594-33.391s-32.463-16.696-51.014-21.334c-18.55-4.637-37.101-7.421-56.579-7.421s-38.957 2.783-56.579 7.421c-18.55 4.637-35.246 12.058-51.014 21.334s-30.609 20.406-43.594 33.391c-12.986 12.986-24.117 27.826-33.391 43.594s-16.696 32.463-21.334 51.014c-4.638 18.55-7.42 37.101-7.42 56.579s2.783 38.957 7.42 56.579c4.638 18.55 12.057 35.247 21.334 51.014s20.406 30.609 33.391 43.594c12.986 12.986 27.826 24.117 43.595 33.391s32.463 16.696 51.014 21.334c18.55 4.637 37.101 7.421 56.579 7.421s38.957-2.783 56.579-7.421c18.55-4.638 35.247-12.058 51.014-21.334s30.609-20.406 43.594-33.391c12.986-12.986 24.117-27.826 33.391-43.594s16.696-32.463 21.334-51.014c4.637-17.623 7.421-37.101 7.421-56.579zM71.421 224c0-16.696 1.856-33.391 6.493-49.159s11.13-30.609 18.55-44.522c8.348-13.913 17.623-25.971 28.754-37.101s24.117-21.334 37.102-28.753c13.913-8.348 28.754-13.913 44.522-18.55s32.463-6.493 49.159-6.493c16.696 0 33.391 1.856 49.159 6.493s30.609 11.13 44.522 18.55c13.913 8.348 25.971 17.623 37.101 28.753s21.334 24.117 28.753 37.101c8.348 13.913 13.913 28.753 18.55 44.522s6.493 32.463 6.493 49.16c0 16.696-1.856 33.391-6.493 49.16s-11.13 30.609-18.55 44.522c-8.348 13.913-17.623 25.971-28.753 37.101s-24.117 21.334-37.101 28.754c-13.913 8.348-28.753 13.913-44.522 18.55s-32.463 6.493-49.16 6.493-33.391-1.856-49.16-6.493-30.609-11.13-44.522-18.55-25.971-17.623-37.102-28.754c-11.13-11.13-21.334-24.117-28.754-37.101-8.348-13.913-13.913-28.754-18.55-44.522s-6.492-32.463-6.492-49.16z" />
<glyph unicode="&#xe651;" glyph-name="uniE651" d="M153.043 227.71l90.899-89.97v222.609h25.043v-222.609l90.899 89.971 17.623-17.623-120.579-120.579-120.579 120.579 16.696 17.624zM256 437.334c19.478 0 38.957-2.783 56.579-7.421 18.55-4.637 35.247-12.058 51.014-21.334s30.609-20.406 43.594-33.391c12.986-12.986 24.116-27.826 33.391-43.594s16.696-32.464 21.334-51.014c4.637-18.55 7.421-37.101 7.421-56.579s-2.783-38.957-7.421-56.579c-4.637-18.55-12.058-35.247-21.334-51.014s-20.406-30.609-33.391-43.594c-12.986-12.986-27.826-24.116-43.594-33.391s-32.464-16.696-51.014-21.334c-18.55-4.637-37.101-7.421-56.579-7.421s-38.957 2.783-56.579 7.421c-18.55 4.637-35.246 12.058-51.014 21.334s-30.609 20.406-43.594 33.391c-12.986 12.986-24.117 27.826-33.391 43.594s-16.696 32.464-21.334 51.014c-4.638 18.55-7.42 37.101-7.42 56.579s2.783 38.957 7.42 56.579c4.638 18.55 12.057 35.247 21.334 51.014s20.406 30.609 33.391 43.594c12.986 12.986 27.826 24.117 43.595 33.391s32.464 16.696 51.014 21.334c17.624 4.637 37.101 7.421 56.579 7.421zM256 39.421c16.696 0 33.391 1.856 49.159 6.493s30.609 11.13 44.522 18.55c13.913 8.348 25.971 17.623 37.101 28.753s21.334 24.116 28.753 37.101c8.348 13.913 13.913 28.753 18.55 44.522s6.493 32.464 6.493 49.159c0 16.696-1.856 33.391-6.493 49.16s-11.13 30.609-18.55 44.522c-8.348 13.913-17.623 25.971-28.753 37.102s-24.116 21.334-37.101 28.753c-13.913 8.348-28.753 13.913-44.522 18.55s-32.464 6.493-49.16 6.493c-16.696 0-33.391-1.856-49.16-6.493s-30.609-11.13-44.522-18.55c-13.913-8.348-25.971-17.624-37.102-28.754s-21.334-24.116-28.754-37.101-13.913-28.754-18.55-44.522-6.492-32.464-6.492-49.159c0-16.696 1.856-33.391 6.493-49.159s11.13-30.609 18.55-44.522 17.624-25.971 28.754-37.101c11.13-11.13 24.117-21.334 37.101-28.753 13.913-8.348 28.754-13.913 44.522-18.55s32.464-6.493 49.16-6.493z" />
<glyph unicode="&#xe652;" glyph-name="uniE652" d="M252.29 121.043l89.97 90.899h-222.609v25.043h222.609l-89.971 90.899 17.623 17.624 120.579-120.58-120.579-120.579-17.624 16.696zM42.666 224c0 19.478 2.783 38.957 7.42 56.579 4.638 18.55 12.057 35.247 21.334 51.014s20.406 30.609 33.391 43.594c12.986 12.986 27.826 24.117 43.595 33.391s32.464 16.696 51.014 21.334c18.55 4.637 37.101 7.421 56.579 7.421s38.957-2.783 56.579-7.421c18.55-4.638 35.247-12.058 51.014-21.334s30.609-20.406 43.594-33.391c12.986-12.986 24.116-27.826 33.391-43.594s16.696-32.464 21.334-51.014c4.637-18.55 7.421-37.101 7.421-56.579s-2.783-38.957-7.421-56.579c-4.637-18.55-12.058-35.247-21.334-51.014s-20.406-30.609-33.391-43.594c-12.986-12.986-27.826-24.116-43.594-33.391s-32.464-16.696-51.014-21.334c-18.55-4.637-37.101-7.421-56.579-7.421s-38.957 2.783-56.579 7.421c-18.55 4.637-35.246 12.058-51.014 21.334s-30.609 20.406-43.594 33.391c-12.986 12.986-24.117 27.826-33.391 43.594s-16.696 32.464-21.334 51.014c-4.638 17.623-7.42 37.101-7.42 56.579zM440.579 224c0 16.696-1.856 33.391-6.493 49.159s-11.13 30.609-18.55 44.522c-8.348 13.913-17.623 25.97-28.753 37.101s-24.116 21.333-37.101 28.753-28.753 13.913-44.522 18.55c-15.769 4.638-32.464 6.493-49.159 6.493s-33.391-1.856-49.16-6.493-30.609-11.13-44.522-18.55-25.97-17.623-37.102-28.753c-11.13-11.13-21.334-24.117-28.754-37.102-8.348-13.913-13.913-28.753-18.55-44.522s-6.492-32.464-6.492-49.159c0-16.696 1.856-33.391 6.493-49.159s11.13-30.609 18.55-44.522c8.348-13.913 17.624-25.971 28.754-37.101s24.117-21.334 37.102-28.753c13.913-8.348 28.754-13.913 44.522-18.55s32.464-6.493 49.159-6.493c16.696 0 33.391 1.856 49.159 6.493s30.609 11.13 44.522 18.55c13.913 8.348 25.971 17.623 37.101 28.753s21.334 24.116 28.753 37.101c8.348 13.913 13.913 28.753 18.55 44.522s6.493 32.464 6.493 49.16z" />
<glyph unicode="&#xe653;" glyph-name="uniE653" d="M448 353.6c0-8-1.599-16-4.8-24s-8-14.4-13.599-20.8l-247.2-247.2-118.4-29.601 29.6 118.4 247.2 247.2c6.399 6.399 12.8 10.401 20.8 13.599s16 4.8 24 4.8c8.8 0 16.8-1.599 24-4.8s14.4-8 20-13.599 10.401-12 13.599-20 4.8-16 4.8-24zM96.799 64.8l61.6 15.2c-1.6 5.601-3.201 11.2-6.399 16s-6.399 9.6-10.4 13.599-8.799 7.2-13.6 10.401-10.4 4.8-15.999 6.399l-15.201-61.599zM124.8 148.8c13.6-4 24.8-11.2 34.4-20.8s16.8-20.8 20.799-34.401l203.2 202.401-55.2 55.2-203.2-202.401zM400 313.601c3.2 3.201 6.399 6.399 8.8 8.799s5.601 5.601 8 8.8 4 6.399 5.601 9.6 1.599 8 1.599 12.801c0 5.6-0.8 10.4-3.2 15.2s-4.8 8-8 12-8 6.399-12 8.8-10.401 2.4-16 2.4c-4.8 0-8.8-0.8-12.8-1.6s-7.2-3.2-9.6-5.6-5.601-4.8-8.8-8.001-5.601-5.6-8.8-8.799l55.2-54.399z" />
<glyph unicode="&#xe654;" glyph-name="uniE654" d="M255.537 433.067c19.427 0 37.929-2.775 55.504-7.401s34.228-12.025 49.954-21.276 29.603-19.426 42.553-32.377 23.127-26.827 32.377-42.553 15.726-32.377 21.276-49.954 7.401-36.078 7.401-55.504-2.775-37.929-7.401-55.504-12.026-34.228-21.276-49.954-19.426-29.603-32.377-42.553-26.827-23.127-42.553-32.377-32.377-15.726-49.954-21.276-36.078-7.401-55.504-7.401-37.929 2.775-55.504 7.401-34.227 12.026-49.954 21.276-29.602 19.426-42.553 32.377-23.127 28.678-31.453 43.478-16.651 32.377-21.276 49.954-7.401 36.078-7.401 55.504 2.775 37.929 7.401 55.504 12.025 34.228 21.276 49.954 19.427 29.602 32.377 42.553 26.828 23.127 42.554 32.377 32.377 15.727 49.954 21.276 35.152 6.476 54.579 6.476zM255.537 44.536c16.651 0 32.377 1.851 48.103 6.476s29.603 10.176 43.478 18.502 25.901 17.577 36.078 27.752 20.351 23.127 27.752 36.078 13.876 27.752 18.502 43.478 6.476 31.452 6.476 48.103c0 16.651-1.851 32.377-6.476 48.103s-10.176 29.603-18.502 43.478-17.577 25.901-27.752 36.078-23.127 20.352-36.078 27.752-27.752 13.876-43.478 18.502-31.452 6.476-48.103 6.476c-16.651 0-32.377-1.851-48.103-6.476s-29.602-10.176-43.478-18.501-25.901-17.577-36.078-27.752-20.352-23.127-27.752-36.078-13.876-27.752-18.502-43.478-6.475-31.452-6.475-48.103 1.85-32.377 6.475-48.103 10.176-29.603 18.501-43.478 17.576-25.901 27.752-36.078 23.127-20.351 36.078-27.752 27.752-13.876 43.478-18.502 31.452-6.476 48.103-6.476zM241.661 322.058h27.752v-138.761h-27.752v138.761zM241.661 155.545h27.752v-27.752h-27.752v27.752z" />
<glyph unicode="&#xe655;" glyph-name="uniE655" d="M396.371 368.758c-79.836 78.081-207.924 75.45-285.127-4.387-78.081-79.836-75.45-207.924 4.387-285.127s207.924-75.45 285.127 4.387c78.081 79.836 75.45 207.924-4.387 285.127zM384.966 99.421c-34.216-35.093-79.836-54.394-128.966-54.394-46.499 0-91.242 17.546-124.579 50.885-34.215 33.338-53.517 78.081-54.394 125.457-0.877 48.252 17.546 92.995 50.885 127.21 34.215 35.093 79.836 54.394 128.966 54.394 46.498 0 91.242-17.546 124.579-50.885 34.216-33.338 53.517-78.081 54.394-125.457 0-47.374-17.546-92.995-50.885-127.21v0zM251.613 96.789c38.603 0 71.063 12.283 80.714 29.829h-160.548c9.65-17.546 41.234-29.829 79.836-29.829zM205.993 261.725c0-18.424-14.915-33.338-33.338-33.338s-33.338 14.915-33.338 33.338 14.915 33.338 33.338 33.338 33.338-14.914 33.338-33.338zM371.805 261.725c0-18.424-14.914-33.338-33.338-33.338s-33.338 14.915-33.338 33.338 14.914 33.338 33.338 33.338c18.423 0 33.338-14.914 33.338-33.338z" />
<glyph unicode="&#xe656;" glyph-name="uniE656" d="M277.625 224l184.241-184.241-21.625-21.625-184.242 184.241-184.242-183.377-21.625 21.625 184.242 183.377-183.377 184.241 21.625 21.625 183.377-184.241 184.242 184.241 21.625-21.625-184.241-184.241z" />
<glyph unicode="&#xe657;" glyph-name="uniE657" d="M43.987 199.33l18.503 18.503 112.56-111.018 274.461 272.918 18.503-18.503-292.964-292.964-131.063 131.063z" />
<glyph unicode="&#xe658;" glyph-name="uniE658" d="M152 16v416l208-208-208-208z" />
<glyph unicode="&#xe659;" glyph-name="uniE659" d="M85.334 10.666v426.666h117.334v-426.666h-117.334zM309.334 437.334h117.334v-426.666h-117.334v426.666z" />
<glyph unicode="&#xe65a;" glyph-name="uniE65A" d="M260.579 29.866l-216.111 305.851h431.306l-215.195-305.851zM36.226 390.661h439.547v27.472h-439.547v-27.472z" />
<glyph unicode="&#xe65b;" glyph-name="uniE65B" d="M251.422 418.134l215.194-304.936h-430.39l215.195 304.936zM475.774 57.339h-439.547v-27.472h439.547v27.472z" />
<glyph unicode="&#xe65c;" glyph-name="uniE65C" d="M448.115 226.896l-211.423-149.637v299.274l211.423-149.637zM235.726 226.896l-211.423-149.637v299.274l211.423-149.637zM487.696 71.466v305.067h-38.616v-305.067h38.616z" />
<glyph unicode="&#xe65d;" glyph-name="uniE65D" d="M275.308 376.534v-299.274l-211.423 149.637 211.423 149.637zM487.697 376.534v-299.274l-211.423 149.637 211.423 149.637zM62.919 71.466v305.067h-38.616v-305.067h38.616z" />
<glyph unicode="&#xe65e;" glyph-name="uniE65E" d="M373.867 228.333l-288.6-204.533v408.2l288.6-203.667zM426.733 16v416h-39v-416h39z" />
<glyph unicode="&#xe65f;" glyph-name="uniE65F" d="M426.733 432v-408.2l-288.6 204.533 288.6 203.667zM123.4 16v416h-38.133v-416h38.133z" />
<glyph unicode="&#xe660;" glyph-name="uniE660" d="M178.903 42.954v-25.988h-129.937v129.937h25.988v-85.759l136.867 136.867 18.191-18.191-136.867-136.867h85.758zM281.988 268.179l136.867 137.734h-85.759v25.988h129.937v-129.937h-25.988v84.892l-136.867-136.867-18.191 18.191zM74.954 301.962h-25.988v129.937h129.937v-25.988h-85.758l136.867-137.734-18.191-18.191-136.867 136.867v-84.892zM300.179 198.012l136.867-136.867v85.759h25.988v-129.937h-129.937v25.988h85.758l-136.867 136.867 18.191 18.191z" />
<glyph unicode="&#xe661;" glyph-name="uniE661" d="M128 404.267v-32h384v32h-384zM128 244.267v-32h384v32h-384zM128 84.267v-32h384v32h-384zM96 389.334c0-26.666-21.334-48-48-48s-48 21.334-48 48 21.334 48 48 48 48-21.334 48-48zM96 229.333c0-26.667-21.334-48-48-48s-48 21.334-48 48 21.334 48 48 48 48-21.334 48-48zM96 69.334c0-26.666-21.334-48-48-48s-48 21.334-48 48 21.334 48 48 48 48-21.334 48-48z" />
<glyph unicode="&#xe662;" glyph-name="uniE662" d="M128 404.8v-32h384v32h-384zM128 244.8v-32h384v32h-384zM128 84.8v-32h384v32h-384zM56.533 329.067h-20.267v78.933c-7.466-6.4-17.067-11.734-26.666-16v20.266c4.267 1.067 10.666 5.334 17.067 9.6s10.667 10.666 13.867 17.067h17.066v-110.933h-1.066zM73.6 188.267v-19.2h-73.6c1.067 8.534 3.2 14.933 6.4 21.334s11.733 14.933 24.534 26.666c9.6 9.6 14.934 14.934 17.066 17.066 3.2 4.267 4.267 8.534 4.267 13.867s-1.066 8.534-4.267 10.666c-3.2 3.2-5.334 4.267-10.666 4.267-4.267 0-8.534-1.067-10.666-4.267-3.2-3.2-4.267-6.4-4.267-13.867l-21.334 3.2c1.067 11.733 5.333 20.266 11.733 25.6s14.934 8.534 24.534 8.534c10.666 0 19.2-3.2 25.6-9.6 6.4-5.334 9.6-13.867 9.6-21.334 0-5.333-1.067-9.6-3.2-14.934s-3.2-8.534-7.466-12.8c-3.2-3.2-6.4-8.534-13.867-13.867s-10.666-13.867-11.733-14.933-2.133-3.2-4.267-5.334h41.6v-1.067zM1.067 38.933l20.267 2.134c0-5.334 3.2-9.6 5.334-11.733 3.2-3.2 6.4-4.267 10.666-4.267s8.534 1.067 10.666 5.334c3.2 3.2 4.267 8.534 4.267 13.867s-1.066 9.6-4.267 11.733c-3.2 3.2-5.334 5.334-9.6 5.334-3.2 0-5.334 0-9.6-1.067l3.2 18.134c5.333 0 9.6 1.067 13.867 4.267 3.2 3.2 4.267 6.4 4.267 10.666s-1.066 6.4-3.2 9.6c-4.267 0-6.4 1.067-10.666 1.067s-6.4-1.067-9.6-4.267c-3.2-3.2-3.2-6.4-4.267-10.666l-19.2 3.2c1.066 6.4 4.266 11.733 6.4 16 3.2 4.267 6.4 6.4 11.734 9.6s10.666 4.267 16 4.267c10.666 0 19.2-3.2 25.6-9.6 5.334-5.334 8.534-11.733 8.534-19.2 0-9.6-5.334-17.067-16-22.4 6.4-1.067 10.666-4.267 14.933-9.6s5.334-10.666 5.334-17.067c0-9.6-4.266-17.067-10.666-24.534s-16-10.666-26.666-10.666c-9.6 0-19.2 3.2-24.534 8.534-7.466 5.334-10.666 11.733-12.8 21.334z" />
<glyph unicode="&#xe663;" glyph-name="uniE663" d="M128 405.334v-32h384v32h-384zM128 245.333v-32h384v32h-384zM128 85.334v-32h384v32h-384zM56.533 329.6h-20.267v78.933c-7.466-6.4-17.067-11.734-26.666-16v20.266c4.267 1.067 10.666 5.334 17.067 9.6s10.667 10.666 13.866 17.067h17.066v-110.933h-1.066zM73.6 188.8v-19.2h-73.6c1.067 8.534 3.2 14.933 6.4 21.334s11.733 14.933 24.534 26.666c9.6 9.6 14.934 14.934 17.066 17.066 3.2 4.267 4.267 8.534 4.267 13.867s-1.066 8.534-4.267 10.666c-3.2 3.2-5.334 4.267-10.666 4.267-4.267 0-8.534-1.067-10.666-4.267-3.2-3.2-4.267-6.4-4.267-13.867l-21.334 3.2c1.067 11.733 5.333 20.266 11.733 25.6s14.934 8.534 24.534 8.534c10.666 0 19.2-3.2 25.6-9.6 6.4-5.334 9.6-13.867 9.6-21.334 0-5.333-1.067-9.6-3.2-14.934s-3.2-8.534-7.466-12.8c-3.2-3.2-6.4-8.534-13.867-13.866s-10.666-13.866-11.733-14.933-2.133-3.2-4.267-5.334h41.6v-1.067zM1.067 39.466l20.267 2.134c0-5.334 3.2-9.6 5.334-11.733 3.2-3.2 6.4-4.267 10.666-4.267s8.534 1.067 10.666 5.334c3.2 3.2 4.267 8.534 4.267 13.866s-1.066 9.6-4.267 11.733c-3.2 3.2-5.334 5.334-9.6 5.334-3.2 0-5.334 0-9.6-1.067l3.2 18.134c5.333 0 9.6 1.067 13.866 4.267 3.2 3.2 4.267 6.4 4.267 10.666s-1.066 6.4-3.2 9.6c-4.267 0-6.4 1.067-10.666 1.067s-6.4-1.067-9.6-4.267c-3.2-3.2-3.2-6.4-4.267-10.666l-19.2 3.2c1.066 6.4 4.266 11.733 6.4 16 3.2 4.267 6.4 6.4 11.734 9.6s10.666 4.267 16 4.267c10.666 0 19.2-3.2 25.6-9.6 5.334-5.334 8.534-11.733 8.534-19.2 0-9.6-5.334-17.067-16-22.4 6.4-1.067 10.666-4.267 14.933-9.6s5.334-10.666 5.334-17.067c0-9.6-4.266-17.067-10.666-24.534s-16-10.666-26.666-10.666c-9.6 0-19.2 3.2-24.534 8.534-7.466 5.334-10.666 11.733-12.8 21.334z" />
<glyph unicode="&#xe664;" glyph-name="uniE664" d="M152 16v416l208-208-208-208z" />
<glyph unicode="&#xe665;" glyph-name="uniE665" d="M360 432v-416l-208 208 208 208z" />
<glyph unicode="&#xe666;" glyph-name="uniE666" d="M31.532 336h448.933l-224-224-224.933 224z" />
<glyph unicode="&#xe667;" glyph-name="uniE667" d="M480 112h-448l224 224 224-224z" />
<glyph unicode="&#xe668;" glyph-name="uniE668" d="M345.6 448l-149.333-447.999h-29.867l149.333 447.999h29.866zM200.934 159.6l20.534 62.534-161.466 161.466v7.466h217.466l9.334 28h-254.799v-47.6l168.933-167.066v-44.8zM355.866 420l-9.334-28h105.466v-7.466l-161.466-161.466-5.6-18.666v-148.399h-49.466l-9.334-28h86.8v176.399l167.066 168v47.6h-124.133z" />
<glyph unicode="&#xe669;" glyph-name="uniE669" d="M36.572 416h438.857v-46.629l-164.571-164.571v-172.8h-109.714v172.8l-164.571 164.571v46.629zM448 381.257v7.315h-384v-8.229l164.571-164.571v-156.343h54.857v157.257l164.571 164.571z" />
<glyph unicode="&#xe66a;" glyph-name="uniE66A" d="M438.4 32l-22.4 26.666v26.666h-22.4l-26.666 32h49.067v32h-75.733l-27.733 32h103.466v32h-130.133l-26.666 32h156.8v32h-183.466l-27.733 32h211.2v32h-237.867l-26.667 32h264.534v32h-292.267l-26.666 32-23.466-21.334 22.4-26.666v-16h12.8l27.734-32h-40.534v-32h67.2l26.666-32h-93.867v-32h121.6l26.666-32h-148.267v-32h174.934l26.666-32h-201.6v-32h229.333l26.666-32h-256v-32h282.666l19.2-23.466 16-19.2z" />
<glyph unicode="&#xe66b;" glyph-name="uniE66B" d="M19.692 416h472.615v-29.538h-472.615v29.538zM19.692 209.231v29.538h472.615v-29.538h-472.615zM19.692 32v29.538h472.615v-29.538h-472.615zM137.846 297.846v29.538h354.462v-29.538h-354.462zM137.846 120.615v29.538h354.462v-29.538h-354.462z" />
<glyph unicode="&#xe66c;" glyph-name="uniE66C" d="M88 344h336v-24h-336v24zM88 416h336v-24h-336v24zM88 272h336v-24h-336v24zM88 200h336v-24h-336v24zM88 128h336v-24h-336v24zM88 56h336v-24h-336v24z" />
<glyph unicode="&#xe66d;" glyph-name="uniE66D" d="M39.385 413.538h433.231v-27.077h-433.231v27.077zM39.385 224v27.077h433.231v-27.077h-433.231zM39.385 61.538v27.077h433.231v-27.077h-433.231zM93.538 332.308h324.923v-27.077h-324.923v27.077zM93.538 169.846h324.923v-27.077h-324.923v27.077z" />
<glyph unicode="&#xe66e;" glyph-name="uniE66E" d="M448 45.6c0-3.2-0.8-6.399-3.2-8.8s-4.8-4.8-8.8-4.8c-3.2 0-6.399 0.8-8.8 3.2l-147.2 147.2c-12-9.6-24.8-17.601-39.201-22.401s-29.601-8-44.799-8c-12 0-24 1.599-35.2 4.8s-21.6 7.2-31.2 13.599-18.4 12.8-26.4 20.8-15.201 16.8-20.799 26.4-10.4 20-13.6 31.2-4.8 23.2-4.8 35.2 1.6 24 4.8 35.2 7.2 21.6 13.6 31.2 12.8 18.399 20.799 26.4 16.8 16 26.4 21.6 20 10.4 31.2 13.6 23.2 3.999 35.2 3.999 24-1.599 35.2-4.8 21.6-7.2 31.2-13.599 18.399-12.8 26.4-20.8 15.2-16.8 20.8-26.4 10.401-20 13.599-31.2 4.8-23.2 4.8-35.2c0-16-2.4-30.399-8-44.799s-12.8-27.201-22.401-39.201c1.599-1.599 5.601-5.601 10.401-10.401s12-11.2 19.2-18.399 15.2-15.2 24-24 17.601-17.601 26.4-26.4 17.601-17.601 25.599-26.4 16-16 22.401-23.2 12-12.8 15.2-16.8 7.2-8 7.2-8.8zM196 176c15.201 0 28.8 3.2 42.399 8.8s24.8 13.599 34.401 23.2 17.601 20.799 23.2 34.4 8.8 27.201 8.8 42.4-3.2 28.8-8.8 42.399-13.599 23.2-24 33.6-20.799 16.8-33.6 23.2-27.201 8-42.4 8-28.8-2.4-41.601-8-24.8-13.6-34.4-23.2-17.6-20.799-23.2-34.4-8.799-27.201-8.799-42.399 3.201-28.8 8.799-42.399 12.8-24 23.2-33.6 20.799-17.601 34.4-23.2 26.4-8.8 41.601-8.8z" />
<glyph unicode="&#xe66f;" glyph-name="uniE66F" d="M512 416v-384h-512v384h512zM32 384v-169.6l112 112 160-160 64 64 112-110.933v264.534h-448zM32 64h329.6l-217.6 217.6-112-112v-105.6zM480 64v9.6l-112 112-41.6-41.6 80-80h73.6zM400 288c-4.267 0-8.534 1.067-11.733 4.267s-4.267 7.466-4.267 11.733 1.067 8.534 4.267 11.733 6.4 4.267 11.733 4.267 8.534-1.067 11.733-4.267 4.267-6.4 4.267-11.733-1.067-8.534-4.267-11.733-7.466-4.267-11.733-4.267z" />
<glyph unicode="&#xe670;" glyph-name="uniE670" d="M189.601 246.4c-1.6 6.399-3.201 12-4 18.399s-1.6 12.801-1.6 19.2c0 12 1.6 24 4.8 35.199s8 21.6 13.6 31.2 12.8 18.399 20.799 26.4 16.8 14.4 26.4 20.799 20 10.401 31.2 13.6 23.2 4.8 35.2 4.8 24-0.8 35.2-4c11.2-3.2 21.6-8 31.2-13.599s18.399-13.6 26.4-21.6 14.4-16.8 20.8-26.4 10.401-20 13.599-31.2c3.2-11.199 4.8-23.199 4.8-35.199s-1.599-24-4.8-35.2c-3.2-11.2-8-21.6-13.599-31.2s-12.8-18.399-20.8-26.4-16.8-14.4-26.4-20.8-20-10.401-31.2-13.599c-11.2-3.2-23.2-4.8-35.2-4.8-10.401 0-21.6 1.599-31.2 4s-19.2 6.399-28.8 11.2v-39.2h-48v-48h-48v-48h-96v89.601l125.601 124.8zM88 56h48v48h48v48h48v48h16c8.8-7.2 19.2-13.599 31.2-17.601s24-6.399 36-6.399c15.2 0 28.8 3.2 42.399 8.8s24 13.599 34.401 23.2 17.601 20 23.2 33.6c5.601 13.6 8.8 27.201 8.8 42.4s-3.2 28.8-8.8 42.399-13.599 24.8-23.2 34.4-21.6 17.601-34.401 23.2-26.4 8-41.601 8c-15.2 0-29.601-1.6-42.399-8s-23.2-12.801-33.6-23.2-16.8-20-22.4-33.6-8.799-27.2-8.799-42.399c0-8 0.8-15.2 2.4-22.401s4-14.4 6.399-21.6l-129.6-129.6v-55.2zM362.401 341.6c2.4-0.801 5.601-3.201 7.2-4.8s4-4 4.8-7.2c0.8-3.201 1.599-6.399 1.599-9.6s-1.599-8-2.4-10.4c-0.8-2.4-3.2-5.601-4.8-7.2s-4-3.2-7.2-4.8c-3.2-0.801-6.399-1.6-9.6-1.6s-6.399 0.8-10.401 2.4c-2.4 0.801-5.601 3.201-7.2 4.8s-4 4-4.8 7.2-1.599 6.399-1.599 9.6 1.599 8 2.4 10.4c0.8 2.4 3.2 5.601 4.8 7.2s4 3.2 7.2 4.8c3.2 0.801 6.399 1.6 9.6 1.6s6.399-0.8 10.401-2.4z" />
<glyph unicode="&#xe671;" glyph-name="uniE671" d="M328.197 34.134l-189.867 189.867 189.867 189.867 44.675-45.472-144.394-144.394 145.191-145.191-45.472-44.675z" />
<glyph unicode="&#xe672;" glyph-name="uniE672" d="M458.658 147.101l-48.434-47.584-153.798 153.798-154.649-154.649-48.434 47.584 203.083 203.082 202.232-202.232z" />
<glyph unicode="&#xe673;" glyph-name="uniE673" d="M458.057 301.256l-202.057-202.057-202.057 202.057 48.392 47.543 153.666-153.666 154.514 153.666 47.543-47.543z" />
<glyph unicode="&#xe674;" glyph-name="uniE674" d="M138.646 78.305l144.496 145.296-144.496 145.296 44.706 45.504 190-190.799-190-190-44.706 44.706z" />
<glyph unicode="&#xe675;" glyph-name="uniE675" d="M0 208v32h512v-32h-512z" />
<glyph unicode="&#xe676;" glyph-name="uniE676" d="M464 211h-195v-195h-26v195h-195v26h195v195h26v-195h195v-26z" />
<glyph unicode="&#xe677;" glyph-name="uniE677" d="M351.998 296.001h56c-7.2 14.4-16 28-26.4 40s-22.401 21.6-36 30.399-27.2 15.201-42.399 19.2-31.2 6.399-47.2 6.399c-15.201 0-30.399-2.4-44.799-6.399s-28-9.6-39.999-16.8-24-16-34.4-26.4-19.2-21.6-26.4-34.4-12.8-25.6-16.8-40-5.6-28.8-5.6-44 2.4-30.399 6.4-44.8 9.6-28 16.8-40 15.999-24 26.4-34.401 21.6-19.2 34.4-26.4 25.6-12.8 39.999-16.8 28.8-5.601 44-5.601c18.399 0 36.8 3.2 54.399 8.8s32.8 14.4 47.2 25.599 26.4 24 36.8 39.2 18.399 32 23.2 49.599l23.2-6.399c-5.601-20.8-14.4-40-26.4-56.8s-26.4-32-42.399-44.8-34.401-22.401-54.399-28.8-40-10.401-61.6-10.401c-17.601 0-34.4 2.4-51.201 7.2s-32 11.2-45.6 19.2-27.201 18.399-39.201 29.601-21.6 24.8-30.4 39.2-14.4 29.601-19.2 45.6-6.4 33.6-6.4 51.201 2.4 34.4 7.2 51.201 11.2 32 19.2 45.6 18.4 27.201 29.6 39.201 24.8 21.6 39.201 30.399 29.601 14.4 45.6 19.2 33.6 6.399 51.201 6.399 34.401-2.4 51.2-7.2 32-11.199 46.401-20 28-19.2 40-31.2 22.401-26.4 30.399-41.601v52h24v-96h-96v24z" />
<glyph unicode="&#xe678;" glyph-name="uniE678" d="M243.873 381.658v-313.582h25.988v312.716l61.504-61.504 18.191 18.191-93.555 93.555-93.555-93.555 18.191-18.191zM351.288 85.401v-43.312h-190.574v43.312h-25.988v-69.3h242.55v69.3z" />
<glyph unicode="&#xe679;" glyph-name="uniE679" d="M100.075 171.591v25.988h129.937v-129.937h-25.988v85.758l-136.867-136.867-18.191 18.191 136.867 136.867h-85.758zM463.034 412.409l-136.867-136.867h85.759v-25.988h-129.937v129.937h25.988v-85.758l136.867 137.734 18.191-19.058z" />
<glyph unicode="&#xe67a;" glyph-name="uniE67A" d="M438 250h-156v182h-234v-416h416v234h-26zM360 224v-78h-78v78h78zM256 146h-78v78h78v-78zM256 250h-78v78h78v-78zM74 328h78v-78h-78v78zM74 224h78v-78h-78v78zM74 42v78h78v-78h-78zM178 42v78h78v-78h-78zM282 42v78h78v-78h-78zM438 42h-52v78h52v-78zM438 146h-52v78h52v-78zM297.6 283.8l18.2-18.2 65 65 62.4-65 18.2 20.8-62.4 62.4 62.4 62.4-18.2 18.2-62.4-62.4-65 62.4-18.2-18.2 65-62.4-65-65z" />
<glyph unicode="&#xe67b;" glyph-name="uniE67B" d="M73.666 224l134.453-134.453-20.313-21.28-155.733 155.733 155.733 155.733 20.313-20.313-134.453-135.421zM438.334 224l-134.453 134.453 20.313 20.313 155.733-154.766-155.733-155.733-20.313 21.28 134.453 134.453z" />
<glyph unicode="&#xe67c;" glyph-name="uniE67C" d="M54.067 16l403.867 416v-413.4l-403.867-2.6z" />
<glyph unicode="&#xe67d;" glyph-name="uniE67D" d="M425.413 116.267l-169.413 169.412-169.412-169.412-23.026 23.026 192.44 192.44 192.44-192.44-23.026-23.026z" />
<glyph unicode="&#xe67e;" glyph-name="uniE67E" d="M152 16v416l208-208-208-208z" />
<glyph unicode="&#xe67f;" glyph-name="uniE67F" d="M256 432c19.067 0 37.267-2.6 55.467-7.8s34.667-12.133 49.4-20.8 29.467-19.933 42.467-32.067 23.4-26.867 32.933-42.467 15.6-32.067 20.8-49.4 6.933-36.4 6.933-55.467-2.6-37.267-7.8-55.467-12.133-34.667-20.8-49.4-19.933-29.467-32.067-42.467-26.867-23.4-42.467-32.933-32.067-15.6-49.4-20.8-36.4-6.933-55.467-6.933c-6.933 0-13.867 1.733-19.933 4.333s-12.133 6.933-16.467 11.267-8.667 10.4-11.267 16.467-4.333 13-4.333 19.933c0 6.933 0.867 12.133 1.733 17.333s2.6 9.533 5.2 13.867 4.333 7.8 6.067 11.267 4.333 6.933 6.067 10.4 3.467 7.8 5.2 11.267 1.733 8.667 1.733 13.867c0 6.933-1.733 13.867-4.333 19.933s-6.933 12.133-11.267 16.467-10.4 8.667-16.467 11.267-13 4.333-19.933 4.333c-5.2 0-9.533-0.867-13.867-1.733s-7.8-2.6-11.267-5.2-6.933-4.333-10.4-6.067-7.8-4.333-11.267-6.067c-4.333-1.733-8.667-3.467-13.867-5.2s-10.4-1.733-17.333-1.733c-6.933 0-13.867 1.733-19.933 4.333s-12.133 6.933-16.467 11.267-8.667 10.4-11.267 16.467-4.333 13-4.333 19.933c0 19.067 2.6 37.267 7.8 55.467s12.133 34.667 20.8 49.4 19.933 29.467 32.067 42.467 26.867 23.4 42.467 32.933 32.067 15.6 49.4 20.8 36.4 6.933 55.467 6.933zM256 42c16.467 0 32.933 2.6 48.533 6.933s30.333 10.4 43.333 18.2 26 17.333 37.267 28.6 20.8 23.4 28.6 37.267 13.867 27.733 18.2 43.333 6.067 31.2 6.067 47.667-2.6 32.933-6.933 48.533-10.4 30.333-18.2 43.333-17.333 26-28.6 37.267-23.4 20.8-37.267 28.6-27.733 13.867-43.333 18.2-31.2 6.067-47.667 6.067-32.933-2.6-48.533-6.933-29.467-10.4-43.333-18.2-26-17.333-37.267-28.6-20.8-23.4-28.6-37.267-13.867-27.733-18.2-43.333-6.067-31.2-6.067-47.667c0-3.467 0.867-6.933 1.733-10.4s3.467-6.067 5.2-7.8 5.2-4.333 7.8-5.2c4.333-1.733 7.8-2.6 11.267-2.6 5.2 0 9.533 0.867 13.867 1.733s7.8 2.6 11.267 5.2 6.933 4.333 10.4 6.067 6.933 4.333 11.267 6.067 8.667 3.467 13.867 5.2 11.267 1.733 17.333 1.733c11.267 0 20.8-1.733 30.333-6.067s17.333-9.533 25.133-16.467c6.933-6.933 13-15.6 16.467-25.133s6.067-19.933 6.067-30.333c0-6.933-0.867-12.133-1.733-17.333s-2.6-9.533-5.2-13.867-4.333-7.8-6.067-11.267-4.333-6.933-6.067-10.4-3.467-7.8-5.2-11.267-1.733-8.667-1.733-13.867c0-3.467 0.867-6.933 1.733-10.4s3.467-6.067 5.2-7.8 5.2-4.333 7.8-5.2c4.333-1.733 7.8-2.6 11.267-2.6zM152 302c3.467 0 6.933-0.867 10.4-1.733 3.467-1.733 6.067-3.467 7.8-5.2s4.333-5.2 5.2-7.8 2.6-7.8 2.6-11.267-0.867-6.933-1.733-10.4-3.467-6.067-5.2-7.8-5.2-4.333-7.8-5.2c-4.333-1.733-7.8-2.6-11.267-2.6s-6.933 0.867-10.4 1.733c-3.467 1.733-6.067 3.467-7.8 5.2s-4.333 5.2-5.2 7.8-2.6 7.8-2.6 11.267 0.867 6.933 1.733 10.4 3.467 6.067 5.2 7.8 5.2 4.333 7.8 5.2c4.333 1.733 7.8 2.6 11.267 2.6zM230 354c3.467 0 6.933-0.867 10.4-1.733 3.467-1.733 6.067-3.467 7.8-5.2s4.333-5.2 5.2-7.8 2.6-7.8 2.6-11.267-0.867-6.933-1.733-10.4-3.467-6.067-5.2-7.8-5.2-4.333-7.8-5.2c-4.333-1.733-7.8-2.6-11.267-2.6s-6.933 0.867-10.4 1.733c-3.467 1.733-6.067 3.467-7.8 5.2s-4.333 5.2-5.2 7.8-2.6 7.8-2.6 11.267 0.867 6.933 1.733 10.4 3.467 6.067 5.2 7.8 5.2 4.333 7.8 5.2c4.333 1.733 7.8 2.6 11.267 2.6zM308 146c3.467 0 6.933-0.867 10.4-1.733 3.467-1.733 6.067-3.467 7.8-5.2s4.333-5.2 5.2-7.8 2.6-7.8 2.6-11.267-0.867-6.933-1.733-10.4-3.467-6.067-5.2-7.8-5.2-4.333-7.8-5.2c-4.333-1.733-7.8-2.6-11.267-2.6s-6.933 0.867-10.4 1.733c-3.467 1.733-6.067 3.467-7.8 5.2s-4.333 5.2-5.2 7.8-2.6 7.8-2.6 11.267 0.867 6.933 1.733 10.4 3.467 6.067 5.2 7.8 5.2 4.333 7.8 5.2c4.333 1.733 7.8 2.6 11.267 2.6zM334 276c-3.467 0-6.933 0.867-10.4 1.733-3.467 1.733-6.067 3.467-7.8 5.2s-4.333 5.2-5.2 7.8-2.6 7.8-2.6 11.267 0.867 6.933 1.733 10.4 3.467 6.067 5.2 7.8 5.2 4.333 7.8 5.2c3.467 1.733 6.933 1.733 10.4 1.733s6.933-0.867 10.4-1.733c3.467-1.733 6.067-3.467 7.8-5.2s4.333-5.2 5.2-7.8 3.467-6.933 3.467-10.4-0.867-6.933-1.733-10.4-3.467-6.067-5.2-7.8-5.2-4.333-7.8-5.2c-4.333-1.733-7.8-2.6-11.267-2.6zM360 224c3.467 0 6.933-0.867 10.4-1.733 3.467-1.733 6.067-3.467 7.8-5.2s4.333-5.2 5.2-7.8 2.6-7.8 2.6-11.267-0.867-6.933-1.733-10.4-3.467-6.067-5.2-7.8-5.2-4.333-7.8-5.2c-4.333-1.733-7.8-2.6-11.267-2.6s-6.933 0.867-10.4 1.733c-3.467 1.733-6.067 3.467-7.8 5.2s-4.333 5.2-5.2 7.8-2.6 7.8-2.6 11.267 0.867 6.933 1.733 10.4 3.467 6.067 5.2 7.8 5.2 4.333 7.8 5.2c4.333 1.733 7.8 2.6 11.267 2.6z" />
<glyph unicode="&#xe680;" glyph-name="uniE680" d="M335.421 123.86c6.906 0 13.813-1.727 19.855-4.317s11.222-6.906 16.402-11.222 7.77-10.36 10.36-16.402 3.454-12.949 3.454-19.855c0-6.906-1.727-13.813-4.317-19.855s-6.906-12.087-11.222-16.402-10.36-8.632-16.402-11.222-12.949-4.317-19.855-4.317c-6.906 0-13.813 1.727-19.855 4.317s-12.087 6.906-16.402 11.222-8.632 10.36-11.222 16.402-4.317 12.949-4.317 19.855c0 9.496 2.589 18.129 7.77 26.762s11.222 14.676 19.855 18.992l-53.523 107.91-53.523-107.046c4.316-2.589 7.77-5.18 11.222-8.632s6.043-6.906 8.632-11.222 4.316-8.632 6.043-12.949 1.727-8.632 1.727-13.813c0-6.906-1.727-13.813-4.316-19.855s-6.906-12.087-11.222-16.402-10.359-8.632-16.403-11.222-12.949-4.317-19.855-4.317c-6.906 0-13.813 1.727-19.855 4.317s-12.087 6.906-16.403 11.222-8.632 10.36-11.222 16.402-4.317 12.949-4.317 19.855c0 6.906 0.862 13.813 3.454 19.855s6.043 11.222 10.359 16.402 9.496 8.632 15.538 11.222 12.087 4.317 18.992 5.18l64.746 130.355-67.336 137.261 12.087 35.395 71.653-143.305 71.653 143.305 12.087-35.395-68.198-137.261 63.882-131.219zM178.304 46.164c3.453 0 6.906 0.863 10.359 1.727s6.043 3.454 7.77 5.18 4.316 5.18 5.179 7.77 2.589 7.77 2.589 11.222-0.863 6.906-1.727 10.36-3.453 6.043-5.179 7.77-5.179 4.317-7.77 5.18-7.77 2.589-11.222 2.589-6.906-0.863-10.359-1.727-6.043-3.454-7.77-5.18-4.316-5.18-5.179-7.77-2.589-7.77-2.589-11.222 0.863-6.906 1.727-10.36 3.453-6.043 5.179-7.77 5.179-4.317 7.77-5.18 7.77-2.589 11.222-2.589zM333.695 46.164c3.454 0 6.906 0.863 10.36 1.727s6.043 3.454 7.77 5.18 4.317 5.18 5.18 7.77 2.589 7.77 2.589 11.222-0.863 6.906-1.727 10.36-3.454 6.043-5.18 7.77-5.18 4.317-7.77 5.18-7.77 2.589-11.222 2.589-6.906-0.863-10.36-1.727-6.043-3.454-7.77-5.18-4.317-5.18-5.18-7.77-2.589-7.77-2.589-11.222 0.863-6.906 1.727-10.36 3.454-6.043 5.18-7.77 5.18-4.317 7.77-5.18 7.77-2.589 11.222-2.589z" />
<glyph unicode="&#xe681;" glyph-name="uniE681" d="M425 354h-26v-299c0-5.2-0.867-10.4-3.467-15.6s-5.2-8.667-8.667-12.133-7.8-6.067-12.133-8.667-9.533-2.6-14.733-2.6h-208c-5.2 0-10.4 0.867-15.6 3.467s-8.667 5.2-12.133 8.667-6.067 7.8-8.667 12.133-2.6 9.533-2.6 14.733v299h-26v26h104v26c0 3.467 0.867 6.933 1.733 10.4s3.467 6.067 5.2 7.8 5.2 4.333 7.8 5.2 7.8 2.6 11.267 2.6h78c3.467 0 6.933-0.867 10.4-1.733s6.067-3.467 7.8-5.2 4.333-5.2 5.2-7.8 2.6-7.8 2.6-11.267v-26h104v-26zM373 354h-234v-299c0-3.467 0.867-6.933 3.467-9.533s5.2-3.467 9.533-3.467h208c3.467 0 6.933 0.867 9.533 3.467s3.467 5.2 3.467 9.533v299zM217 94h-26v208h26v-208zM217 380h78v26h-78v-26zM269 94h-26v208h26v-208zM321 94h-26v208h26v-208z" />
<glyph unicode="&#xe682;" glyph-name="uniE682" d="M472.615 413.538v-27.077h-433.231v27.077h433.231zM364.308 305.231h-324.923v27.077h324.923v-27.077zM472.615 224h-433.231v27.077h433.231v-27.077zM364.308 142.769h-324.923v27.077h324.923v-27.077zM472.615 61.538h-433.231v27.077h433.231v-27.077z" />
<glyph unicode="&#xe683;" glyph-name="uniE683" d="M472.534 290.912c-4.647-4.647-9.293-9.293-13.94-13.011s-9.293-7.435-13.94-10.223-10.223-4.646-15.798-6.505-12.082-2.788-19.516-2.788c-4.647 0-9.293 0-13.94 0.929l-82.711-82.71c1.858-5.576 3.717-11.152 3.717-16.728s0.93-12.082 0.93-17.658c0-9.293-0.93-17.658-2.788-26.021s-4.647-14.87-8.364-21.375-7.435-13.010-13.010-19.516-11.152-12.082-17.658-18.587l-83.64 83.64-122.671-122.671-29.739-10.223 10.222 29.738 123.601 123.601-83.64 83.64 10.222 10.222c10.222 10.222 21.374 17.658 35.314 23.233s26.951 8.364 40.891 8.364c12.082 0 23.233-1.858 34.385-5.576l82.71 82.711c-0.93 4.647-0.93 9.293-0.93 13.94 0 7.435 0.93 13.94 1.858 19.516s3.717 11.152 6.505 15.798 6.505 9.293 10.223 13.94 8.364 9.293 13.010 13.94l148.692-149.621zM409.34 286.265c8.364 0 15.798 1.858 22.304 5.576l-107.803 108.731c-3.717-7.435-5.576-14.87-5.576-23.233 0-3.717 0.93-7.434 1.858-11.152s1.858-7.435 2.788-11.152l-106.873-106.873c-3.718 1.858-7.435 2.788-10.222 3.718s-6.506 2.788-9.293 3.718-6.506 1.858-10.222 1.858-7.435 0.93-11.152 0.93c-8.364 0-16.728-0.93-24.162-3.718s-14.869-5.576-21.375-10.222l146.834-146.834c4.647 6.505 8.364 13.94 10.223 21.375s3.717 15.798 3.717 24.163c0 3.717 0 7.435-0.93 11.152s-0.93 6.505-1.858 10.223-1.858 6.505-3.717 9.293-2.788 6.505-3.717 10.223l106.873 106.873c3.717-0.929 7.435-1.858 11.152-2.788s7.435-1.858 11.152-1.858z" />
<glyph unicode="&#xe684;" glyph-name="uniE684" d="M483.556 323.554v-199.111h-14.223c-11.378 0-21.808 2.844-32.237 7.586s-18.014 12.327-24.652 20.859h-109.986c-3.793-8.534-9.481-17.067-15.171-23.704s-13.274-13.274-20.859-18.014-16.119-8.534-24.652-11.378-18.014-3.793-27.496-3.793h-15.171v113.778h-142.222l-28.445 14.223 28.445 14.222h142.222v113.778h14.222c9.482 0 18.963-0.948 27.496-3.793s17.066-6.637 24.652-11.378 15.171-10.43 20.859-18.014 11.378-15.171 15.171-23.704h109.986c6.637 9.482 15.171 16.119 24.652 20.859s19.911 7.586 32.237 7.586h15.171zM455.111 292.265c-3.793-0.948-6.637-2.845-9.481-4.741s-4.741-3.793-6.637-5.689-3.793-4.741-5.689-7.586-3.793-5.689-5.689-8.534h-144.118l-3.793 9.481c-3.793 11.379-10.43 21.808-19.911 29.393s-19.911 13.274-32.237 16.119v-196.266c12.327 2.844 22.756 7.586 32.237 16.118s16.118 18.014 19.911 29.392l3.793 9.481h145.066c1.897-2.844 3.793-5.689 5.689-8.534s3.793-4.741 5.689-7.586 3.793-3.793 6.637-5.689 5.689-2.844 9.481-4.741v139.378z" />
<glyph unicode="&#xe685;" glyph-name="uniE685" horiz-adv-x="522" d="M261 480c23.272 0 46.546-3.675 67.368-9.8s41.646-14.698 61.245-25.722c18.373-11.024 36.746-24.498 51.445-40.421s29.397-33.072 40.421-51.445 19.598-39.196 25.722-61.244 9.8-44.096 9.8-67.368-3.674-46.546-9.8-67.368-14.699-41.646-25.722-61.245-24.498-36.746-40.421-51.445-33.072-29.397-51.445-40.421c-18.373-11.024-39.197-19.598-61.245-25.722s-44.096-9.8-67.368-9.8-46.546 3.675-67.368 9.8-41.646 14.699-61.245 25.722-36.746 24.498-51.445 40.421-29.397 33.072-40.421 51.445c-11.024 18.373-19.598 39.197-25.722 61.245s-9.8 44.096-9.8 67.368 3.675 46.546 9.8 67.368 14.698 41.646 25.722 61.245c11.024 18.373 24.497 36.746 40.421 51.445s33.072 29.397 51.445 40.421 39.197 19.598 61.245 25.722 44.096 9.799 67.368 9.799zM261 443.254c-19.598 0-39.197-2.45-57.57-7.35s-35.522-12.248-52.669-22.048-30.622-20.823-44.096-34.296-24.498-28.173-34.296-44.096-17.148-34.296-22.048-52.67-7.349-37.971-7.349-57.569 2.45-39.196 7.349-57.569 12.248-35.522 22.048-52.67 20.823-30.622 34.297-44.096 28.173-24.498 44.096-34.296 34.297-17.149 52.669-22.048 37.971-7.349 57.569-7.349 39.197 2.45 57.57 7.349 35.522 12.248 52.67 22.048c15.923 9.8 30.622 20.823 44.096 34.296s24.498 28.173 34.296 44.096 17.149 34.296 22.048 52.669 7.349 37.971 7.349 57.57-2.45 39.197-7.349 57.57-12.248 35.522-22.048 52.669-20.823 30.622-34.296 44.096-28.173 24.498-44.096 34.297-33.072 17.148-52.669 22.048-36.746 7.349-57.57 7.349zM236.503 90.488l-25.722 25.722 106.564 106.565-106.565 106.565 25.722 25.722 132.287-132.287-132.287-132.287z" />
<glyph unicode="&#xe686;" glyph-name="uniE686" d="M492.779 224c0-130.769-106.010-236.779-236.779-236.779s-236.78 106.010-236.78 236.779c0 130.769 106.010 236.779 236.78 236.779s236.779-106.010 236.779-236.779zM236.276 356.137l126.027-134.011-48.373-45.491-126.028 134.011 48.374 45.492zM177.862 137.394l109.665 105.526 46.043-47.849-109.666-105.526-46.042 47.849z" />
<glyph unicode="&#xe687;" glyph-name="uniE687" d="M492.779 224c0-130.769-106.010-236.779-236.779-236.779s-236.78 106.010-236.78 236.779c0 130.769 106.010 236.779 236.78 236.779s236.779-106.010 236.779-236.779zM324.072 310.645l-126.046-133.993-48.381 45.512 126.046 133.993 48.381-45.512zM288.101 89.557l-109.65 105.541 46.049 47.842 109.65-105.541-46.050-47.842z" />
<glyph unicode="&#xe688;" glyph-name="uniE688" horiz-adv-x="326" d="M308.021 314.512v-180.025l-90.012 90.012 90.012 90.012zM258.014 44.476c-17.002 0-33.005 2-48.007 6.001s-30.004 10.001-43.006 18.002-26.004 17.002-36.005 28.003-20.003 23.003-28.004 36.005-14.002 28.003-18.002 43.006-6.001 31.004-6.001 48.007 2.001 33.005 6.001 48.007 10.001 30.004 18.002 43.006 17.002 26.004 28.004 36.005 23.004 20.003 36.005 28.004 28.004 14.002 43.006 18.002c16.002 6.001 31.004 8.002 48.007 8.002v60.008h7.001c-2 0-5.001 0-7.001 0-22.003 0-43.006-3-64.008-9.001s-40.006-14.002-57.008-24.004-34.005-23.003-49.007-37.005-27.004-31.004-38.005-49.007-19.003-37.005-24.003-57.008-8.002-42.006-8.002-64.008 3-43.006 9.001-64.008 14.002-40.005 24.003-57.008 23.004-34.005 38.005-49.007 31.004-27.003 49.007-38.005 37.005-19.002 57.008-24.003 42.006-9.001 64.008-9.001v61.008z" />
<glyph unicode="&#xe689;" glyph-name="uniE689" horiz-adv-x="326" d="M17.501 134v180l90-90-90-90zM67.501 404c17 0 33-2 48-6s30-10 43-18 26-17 36-28 20-23 28-36 14-28 18-43 6-31 6-48-2-33-6-48-10-30-18-43-17-26-28-36-23-20-36-28-28-14-43-18-31-8-48-8v-60h-7c2 0 5 0 7 0 22 0 43 3 64 9s40 14 57 24 34 23 49 38 27 31 38 49 19 37 24 57 9 42 9 64-3 43-9 64-14 40-24 57-24 33-38 48-31 27-49 38-37 19-57 24-42 8-64 8v-60z" />
<glyph unicode="&#xe68a;" glyph-name="uniE68A" horiz-adv-x="522" d="M253.5 464c33.6 0 63.999-6.399 92.799-19.2s54.399-30.399 76.8-51.201 38.4-46.401 51.201-76.8 19.2-59.199 19.2-92.799-6.399-63.999-19.2-92.799-30.399-54.399-51.201-76.8-46.401-38.4-76.8-51.201-59.199-19.2-92.799-19.2-63.999 6.399-92.799 19.2-54.399 30.399-76.8 51.201-38.4 46.401-51.201 76.8-19.2 60.801-19.2 92.799 6.399 63.999 19.2 92.799 30.399 54.399 51.201 76.8 46.401 38.4 76.8 51.201 59.199 19.2 92.799 19.2z" />
<glyph unicode="&#xe68b;" glyph-name="uniE68B" horiz-adv-x="269" d="M243.486-15.467l-238.967 238.967 238.967 239.966 20.997-20.997-217.97-218.969 217.97-217.97-20.997-20.997z" />
<glyph unicode="&#xe68c;" glyph-name="uniE68C" horiz-adv-x="526" d="M423 320v-192h-320v192h320z" />
<glyph unicode="&#xe68d;" glyph-name="uniE68D" horiz-adv-x="526" d="M175.244 175.903c23.627 20.251 54.004 32.065 86.069 32.065 33.753 0 64.13-11.813 87.755-32.065l45.565 45.565c-35.44 32.065-81.005 50.628-131.634 50.628s-96.194-18.564-131.634-50.628l43.879-45.565z" />
<glyph unicode="&#xe68e;" glyph-name="uniE68E" horiz-adv-x="526" d="M265.041 346.031l-42.679-42.685c16.249-21.238 25.925-47.774 25.925-76.575 0-31.447-11.541-60.186-30.571-82.274l42.529-42.529c29.85 33.019 48.040 76.784 48.040 124.808 0 45.378-16.253 86.957-43.243 119.255z" />
<glyph unicode="&#xe68f;" glyph-name="uniE68F" horiz-adv-x="526" d="M308.38 144.277c-19.151 22.12-30.764 50.947-30.764 82.499 0 28.91 9.75 55.535 26.108 76.81l-42.674 42.67c-27.095-32.334-43.431-73.992-43.431-119.484 0-48.129 18.263-91.983 48.233-125.028l42.529 42.534z" />
<glyph unicode="&#xe690;" glyph-name="uniE690" horiz-adv-x="526" d="M339.707 267.053c-21.274-16.358-47.904-26.103-76.815-26.103-28.806 0-55.342 9.672-76.581 25.92l-42.685-42.68c32.304-26.99 73.876-43.243 119.265-43.243 45.488 0 87.149 16.337 119.484 43.437l-42.669 42.669z" />
<glyph unicode="&#xe691;" glyph-name="uniE691" horiz-adv-x="526" d="M407 215h-135v-135h-18v135h-135v18h135v135h18v-135h135v-18z" />
<glyph unicode="&#xe692;" glyph-name="uniE692" horiz-adv-x="526" d="M407 368v-288h-288v288h288z" />
<glyph unicode="&#xe693;" glyph-name="uniE693" horiz-adv-x="526" d="M103.466 214.4v19.2h302.933v-19.2h-302.933z" />
<glyph unicode="&#xe694;" glyph-name="uniE694" horiz-adv-x="526" d="M407 368v-288h-288v288h288z" />
<glyph unicode="&#xe695;" glyph-name="uniE695" horiz-adv-x="526" d="M262.739 331.734l115.579-115.579-11.505-10.983-9.937 9.937v-98.844h-78.447v78.447h-31.379v-78.447h-78.446v98.844l-9.937-9.937-10.983 10.983 115.055 115.579zM341.185 131.957v98.844l-78.447 78.447-78.447-78.447v-98.844h47.068v78.447h62.757v-78.447h47.068z" />
<glyph unicode="&#xe696;" glyph-name="uniE696" horiz-adv-x="526" d="M451.617 224c0-104.171-84.447-188.617-188.617-188.617s-188.617 84.447-188.617 188.617c0 104.171 84.447 188.617 188.617 188.617s188.617-84.447 188.617-188.617z" />
<glyph unicode="&#xe697;" glyph-name="uniE697" horiz-adv-x="526" d="M391 160h-256l128 128 128-128z" />
<glyph unicode="&#xe698;" glyph-name="uniE698" horiz-adv-x="526" d="M199 96v256l128-128-128-128z" />
<glyph unicode="&#xe699;" glyph-name="uniE699" horiz-adv-x="526" d="M327 352v-256l-128 128 128 128z" />
<glyph unicode="&#xe69a;" glyph-name="uniE69A" horiz-adv-x="526" d="M135 288h256l-128-128-128 128z" />
<glyph unicode="&#xe69b;" glyph-name="uniE69B" horiz-adv-x="269" d="M3.725 18.352l205.648 205.648-205.648 205.648 27.952 27.952 233.6-233.6-233.6-233.6-27.952 27.952z" />
<glyph unicode="&#xe69c;" glyph-name="uniE69C" horiz-adv-x="513" d="M512.5 396.8c0-10.666-2.134-21.334-6.4-32s-10.666-19.2-18.134-27.733l-329.6-329.6-157.867-39.466 39.467 157.866 329.6 329.6c8.534 8.534 17.067 13.866 27.733 18.134s21.334 6.4 32 6.4c11.733 0 22.4-2.134 32-6.4s19.2-10.667 26.666-18.134 13.866-16 18.134-26.666 6.4-21.334 6.4-32zM44.233 11.733l82.133 20.267c-2.133 7.466-4.266 14.933-8.534 21.334s-8.534 12.8-13.867 18.134-11.733 9.6-18.133 13.866-13.867 6.4-21.334 8.534l-20.267-82.133zM81.567 123.733c18.133-5.334 33.067-14.933 45.867-27.733s22.4-27.733 27.734-45.866l270.933 269.866-73.6 73.6-270.933-269.866zM448.5 343.466c4.267 4.267 8.534 8.534 11.733 11.733s7.466 7.466 10.666 11.733 5.334 8.534 7.466 12.8 2.134 10.666 2.134 17.066c0 7.466-1.067 13.867-4.267 20.267s-6.4 10.667-10.666 16-10.666 8.534-16 11.733-13.866 3.2-21.334 3.2c-6.4 0-11.733-1.067-17.067-2.134s-9.6-4.267-12.8-7.466-7.466-6.4-11.733-10.666-7.466-7.466-11.733-11.733l73.6-72.534z" />
<glyph unicode="&#xe69d;" glyph-name="uniE69D" horiz-adv-x="410" d="M413 384h-32v-368c0-6.4-1.067-12.8-4.267-19.2s-6.4-10.666-10.666-14.933c-4.267-4.267-9.6-7.466-14.933-10.666s-11.733-3.2-18.134-3.2h-256c-6.4 0-12.8 1.067-19.2 4.267s-10.666 6.4-14.934 10.666c-4.267 4.267-7.467 9.6-10.666 14.933s-3.2 11.733-3.2 18.134v368h-32v32h128v32c0 4.267 1.067 8.534 2.133 12.8s4.267 7.466 6.4 9.6 6.4 5.334 9.6 6.4c5.333 2.133 9.6 3.2 13.867 3.2h96c4.267 0 8.534-1.067 12.8-2.134 4.267-2.133 7.466-4.266 9.6-6.4s5.334-6.4 6.4-9.6 3.2-9.6 3.2-13.867v-32h128v-32zM349 384h-288v-368c0-4.267 1.066-8.534 4.266-11.733s6.4-4.267 11.734-4.267h256c4.267 0 8.534 1.067 11.733 4.267s4.267 6.4 4.267 11.733v368zM157 64h-32v256h32v-256zM157 416h96v32h-96v-32zM221 64h-32v256h32v-256zM285 64h-32v256h32v-256z" />
<glyph unicode="&#xe69e;" glyph-name="uniE69E" d="M282.072 224l201.128-201.128-26.072-26.072-201.128 201.128-201.128-201.128-26.072 26.072 201.128 201.128-201.128 201.128 26.072 26.072 201.128-199.887 201.128 199.887 26.072-26.072-201.128-201.128z" />
</font>
</defs>
</svg>
