<?xml version="1.0" standalone="no"?>
<!DOCTYPE svg PUBLIC "-//W3C//DTD SVG 1.1//EN" "http://www.w3.org/Graphics/SVG/1.1/DTD/svg11.dtd" >
<svg xmlns="http://www.w3.org/2000/svg">
<metadata>Generated by IcoMoon</metadata>
<defs>
<font id="icomoon" horiz-adv-x="1024">
<font-face units-per-em="1024" ascent="960" descent="-64" />
<missing-glyph horiz-adv-x="1024" />
<glyph unicode="&#x20;" horiz-adv-x="512" d="" />
<glyph unicode="&#xe600;" glyph-name="e-ss1-paste" d="M456.594 846.391c14.812 0 26.75 12.031 26.75 26.688 0 14.875-11.938 26.875-26.75 26.875s-26.781-12-26.781-26.875c0-14.656 11.969-26.688 26.781-26.688zM823.25 463.859v-63.969h62.344zM324.906 706.672h263.344c19.781 0 22.406 17.156 22.406 39.625v22.156c0 22.5-2.625 34.219-22.406 34.219h-73.594v91.156c0 19.75-10.438 36.844-30.25 36.844h-55.656c-19.781 0-42.094-17.094-42.094-36.844v-91.156h-61.75c-19.75 0-34.25-11.719-34.25-34.219v-22.156c0-22.469 14.5-39.625 34.25-39.625zM456.594 899.953c14.812 0 26.75-12 26.75-26.875 0-14.656-11.938-26.688-26.75-26.688s-26.781 12.031-26.781 26.688c0 14.875 11.969 26.875 26.781 26.875zM450.656 546.672h320v176.875c0 35.875-25.156 47.125-60.969 47.125h-51.406c2.594 0-15.625 2.344-15.625-6.156v-24c0-37.75-8.438-65.844-43.188-65.844h-285.75c-34.75 0-87.062 28.094-87.062 65.844v24c0 8.5 25.625 6.156 28.25 6.156h-51.375c-35.844 0-72.875-11.25-72.875-47.125v-679.906c0-35.812 37.031-72.969 72.875-72.969h247.125v576zM778.469 323.766h-5.281l5.469-5.188zM823.219 491.859l-0.187-9.188h-340.375v-512h448v416h3.312l-110.75 105.188zM823.25 463.859l62.344-63.969h-62.344v63.969zM898.656 2.672h-384v448h256v-128h128v-320z" />
<glyph unicode="&#xe601;" glyph-name="e-ss2-cut" d="M780.766 777.318c26.487 64.649-26.692 114.415-26.692 114.415l-258.662-414.857-258.526 414.857c0 0-53.316-49.766-26.761-114.415l201.591-422.844c0 0 9.626-35.362-5.666-56.32l-22.665-31.13-61.030-75.708 53.385-42.94 66.492 82.671-0.137 0.068 53.316 64.99 53.316-64.99-0.137-0.068 66.56-82.739 53.385 42.94-60.962 75.776-22.665 31.13c-15.292 20.958-5.734 56.32-5.734 56.32l201.591 422.844zM705.536-64c-52.838 0-102.195 28.467-128.683 74.206-40.755 70.793-16.384 161.724 54.34 202.547 22.596 13.039 48.060 19.934 74.069 19.934 52.838 0 102.127-28.331 128.614-74.069 40.823-70.929 16.452-161.792-54.272-202.684-22.596-13.039-48.196-19.934-74.069-19.934zM705.263 187.085c-17.886 0-35.567-4.779-51.2-13.79-49.015-28.331-65.946-91.204-37.615-140.356 18.295-31.607 52.429-51.337 89.088-51.337 17.886 0 35.567 4.779 51.2 13.79 49.015 28.331 65.946 91.341 37.615 140.356-18.364 31.607-52.429 51.337-89.088 51.337zM282.761-56.081c-52.838 0-102.127 28.467-128.614 74.342-40.823 70.656-16.452 161.655 54.272 202.615 22.596 12.971 48.196 19.866 74.069 19.866 52.838 0 102.127-28.467 128.614-74.206 40.823-70.793 16.452-161.792-54.272-202.684-22.596-13.039-48.060-19.934-74.069-19.934zM282.487 195.004c-17.886 0-35.567-4.642-51.2-13.722-49.015-28.262-65.946-91.273-37.615-140.288 18.364-31.744 52.429-51.337 89.088-51.337 17.886 0 35.567 4.642 51.2 13.722 49.015 28.262 65.946 91.273 37.615 140.288-18.295 31.744-52.565 51.337-89.088 51.337z" />
<glyph unicode="&#xe602;" glyph-name="e-ss3-copy" d="M70.383 823.467h409.6v-68.267h204.8v68.267h-68.267v68.267h-614.4v-819.2h341.333v68.267h-273.067zM889.583 618.667v68.267h-477.867v-750.933h546.133v682.667h-68.267zM889.583 4.267h-409.6v614.4h273.067v-204.8h136.533v-409.6zM887.467 482.133h-68.267v68.267h68.267v-68.267zM548.25 345.6h204.8v-68.267h-204.8v68.267zM138.65 618.667h204.8v-68.267h-204.8v68.267zM138.65 482.133h204.8v-68.267h-204.8v68.267zM138.65 345.6h204.8v-68.267h-204.8v68.267zM548.25 209.067h204.8v-68.267h-204.8v68.267z" />
<glyph unicode="&#xe603;" glyph-name="e-ss4a-new-d" d="M682.667 960h-546.133v-1024h750.933v750.933l-204.8 273.067zM682.667 686.933v0 0 0 0zM819.2 38.4v-34.133h-614.4v887.467h341.333v-273.067h273.067v-580.267z" />
<glyph unicode="&#xe604;" glyph-name="e-ss4-format-painting" d="M948.497 666.658l-81.374 83.081c-15.77 16.247-46.148 13.175-67.925-6.963l-136.806-125.815 138.65-141.585 136.875 125.952c21.572 20.002 26.487 49.22 10.581 65.331zM654.541 239.104l-238.797 250.266c-10.035 10.513-17.886 21.709-24.576 33.109l-18.91 19.797-370.142-88.678 444.416-444.348 243.029 201.865c-12.151 7.441-24.166 16.452-35.021 27.989zM762.607 236.373c-15.36-14.473-51.337-1.502-80.418 28.945l-238.729 250.266c-29.15 30.583-40.209 67.038-24.849 81.306l78.643 74.547c15.428 14.404 51.337 1.365 80.418-29.013l238.729-250.266c29.15-30.583 40.346-66.901 24.986-81.306l-78.78-74.479z" />
<glyph unicode="&#xe605;" glyph-name="e-ss5-open-d" d="M889.583 550.4v341.333h-273.067v-68.267h-68.267v-68.267h273.067v-2.116h-682.667v2.116h-68.267v-750.933h819.2v204.8l68.267 68.267v273.067h-68.267zM821.316 686.933v-136.533h-546.133v-68.267l-68.267-68.267v68.267h-68.267v204.8h682.667z" />
<glyph unicode="&#xe606;" glyph-name="e-ss6-exportcsv-d" d="M981.47 106.53l-29.286 24.439c-14.199 12.015-37.478 31.403-51.541 43.213l-29.286 24.439c-14.199 11.878-26.010 6.827-26.214-16.794l-0.41-41.028h-173.124c-12.083 0-55.091-18.5-55.091-30.583v-47.718c0-12.083 43.008 10.035 55.091 10.035h172.305l-0.478-61.167c-0.068-23.552 11.469-41.233 25.873-29.491l29.628 19.866c14.473 11.537 38.093 28.604 52.497 40.277l29.764 22.801c14.268 11.674 14.404 30.037 0.273 41.711zM295.322 358.161c-12.698-5.666-36.659-10.377-63.898-10.377-74.206 0-121.651 45.056-121.651 117.419 0 67.174 46.012 122.129 131.55 122.129 18.773 0 39.458-3.277 54.477-8.875l-11.264-53.111c-8.465 3.823-21.163 7.1-39.936 7.1-37.615 0-61.986-26.829-61.508-64.307 0-42.325 28.194-64.375 62.942-64.375 16.93 0 30.037 2.799 40.892 7.1l8.397-52.702zM334.097 414.959c13.107-7.987 40.414-17.34 61.508-17.34 21.572 0 30.515 7.441 30.515 19.183 0 11.81-7.031 17.408-33.86 26.351-47.377 15.974-65.673 41.779-65.195 69.018 0 42.735 36.659 75.162 93.525 75.162 26.761 0 50.722-6.076 64.853-13.107l-12.766-49.357c-10.308 5.666-30.037 13.175-49.766 13.175-17.34 0-27.238-7.1-27.238-18.773 0-10.786 8.943-16.452 37.069-26.351 43.691-15.019 62.054-37.137 62.532-70.929 0-42.735-33.86-74.206-99.601-74.206-30.037 0-56.866 6.554-74.206 15.906l12.629 51.268zM591.326 582.212l30.993-106.701c5.666-19.251 9.899-37.547 13.175-55.842h1.434c3.755 18.773 7.509 36.113 12.698 55.842l29.628 106.701h75.162l-85.538-229.717h-71.407l-83.627 229.717h77.483zM784.93 960h-705.877c-23.62 0-76.937-36.25-76.937-59.87v-905.762c0-23.552 53.316-58.368 76.937-58.368h469.197v68.267h-469.197c-7.851 0-8.67-17.749-8.67-9.899v905.762c0 7.851 0.819-8.397 8.67-8.397h673.997v-682.667h68.267v691.063c0 23.62-12.766 59.87-36.386 59.87z" />
<glyph unicode="&#xe607;" glyph-name="e-ss7-exportexcel-d" d="M541.969 209.067h89.702l-153.054 246.852 138.786 231.014h-84.309l-112.299-200.499-115.371 200.499h-85.606l139.469-228.011-155.511-249.856h88.542l0.068 8.124 123.972 0.887 63.42 59.255h-150.255l87.723 138.786zM981.47 108.032l-29.286 24.439c-14.199 12.015-37.478 31.403-51.541 43.213l-29.286 24.439c-14.199 11.878-26.010 6.076-26.214-17.613l-0.41-41.711h-173.124c-12.083 0-55.091-17.067-55.091-29.15v-47.787c0-12.015 43.008 8.67 55.091 8.67h172.305l-0.478-60.484c-0.068-23.552 11.469-40.892 25.873-29.15l29.628 20.070c14.473 11.537 38.093 28.672 52.497 40.414l29.764 22.801c14.268 11.742 14.404 30.174 0.273 41.847zM784.93 960h-705.877c-23.62 0-76.937-34.816-76.937-58.368v-905.762c0-23.62 53.316-59.87 76.937-59.87h537.463v68.267h-537.463c-7.851 0-8.67-16.247-8.67-8.397v905.762c0 7.851 0.819-9.899 8.67-9.899h673.997v-682.667h68.267v692.565c0 23.552-12.766 58.368-36.386 58.368zM812.783-40.721c5.461 11.674 8.533 25.463 8.533 36.591v8.397h-8.533v-44.988z" />
<glyph unicode="&#xe608;" glyph-name="e-ss8-print-d" d="M519.646 72.533h28.604l-48.811 104.926 44.305 99.874h-26.965l-35.84-63.078-36.796 63.078h-27.307l44.51-98.236-49.63-104.858v-0.273 12.629l53.658-16.179 34.406 2.116h-47.991l27.989 54.34zM275.183 960h409.6v-68.267h-409.6v68.267zM616.516 960h68.267v-273.067h-68.267v273.067zM206.916 960h68.267v-273.067h-68.267v273.067zM867.738 755.2h-163.499c-8.943-68.267-28.945-68.267-52.224-68.267h-369.664c-23.279 0-43.281 0-52.224 68.267h-138.035c-48.265 0-89.975-60.962-89.975-109.295v-366.729c0-48.333 41.711-70.11 89.975-70.11h114.825v160.154c0 34.884 33.86 44.646 65.468 44.646h428.442c31.744 0 52.224-9.762 52.224-44.646v-160.154h114.62c48.469 0 90.18 21.777 90.18 70.11v366.729c0 48.401-41.711 109.295-90.112 109.295zM187.392 555.247h-109.705v109.773h109.705v-109.773zM616.516 345.6h68.267v-341.333h-68.267v341.333zM275.183 4.267h409.6v-68.267h-409.6v68.267zM275.183 345.6h68.267v-409.6h-68.267v409.6z" />
<glyph unicode="&#xe609;" glyph-name="e-ss10-bold" d="M625.778 477.468v1.934c56.889 26.852 96.654 83.57 96.654 145.237 0 56.775-33.109 100.58-73.842 125.44-44.544 31.858-100.58 42.78-188.757 42.78-66.901 0-118.5-5.916-175.388-13.881v-659.797c0-4.039 79.246-8.988 145.237-8.988 119.239 0 195.243 20.878 241.721 62.748 37.888 31.858 74.695 78.564 74.695 138.354 0 92.444-63.431 148.196-120.32 166.172zM398.222 697.287c0 3.015 34.020 5.006 69.006 5.006 75.548 0 122.652-31.801 122.652-94.436 0-56.661-46.080-99.442-128.512-99.442h-63.147v188.871zM462.336 202.809c-27.25 0-64.114 0.967-64.114 3.015v245.703h61.212c82.375 0 147.911-45.227 147.911-122.766 0-82.66-68.437-125.952-145.010-125.952z" />
<glyph unicode="&#xe60a;" glyph-name="e-ss11-italics" d="M570.88 128.796l-5.518-18.603h-280.917l7.054 18.603c28.217 0.74 46.763 3.015 55.865 7.111 14.791 5.689 25.657 13.54 32.711 23.609 11.036 15.815 22.471 43.975 34.19 84.594l118.898 411.762c10.069 34.304 15.076 60.075 15.076 77.54 0 8.704-2.162 16.043-6.485 22.187-4.38 5.973-11.036 10.638-19.911 13.767-8.875 3.3-26.283 4.836-52.11 4.836l6.030 18.66h263.794l-5.575-18.66c-21.447 0.341-37.433-1.991-47.787-6.997-15.076-6.713-26.624-16.327-34.475-28.672-7.908-12.459-18.091-39.993-30.436-82.603l-118.386-411.819c-10.695-38.002-16.043-62.123-16.043-72.533 0-8.306 2.048-15.474 6.258-21.39 4.21-5.86 10.866-10.411 20.139-13.54 9.273-3.243 28.444-5.803 57.628-7.851z" />
<glyph unicode="&#xe60b;" glyph-name="e-ss12-underline" d="M227.556 106.667h512v-56.889h-512v56.889zM398.222 789.333v-358.4c0-85.333 28.444-130.844 85.333-130.844s85.333 39.822 85.333 130.844v358.4h113.778v-352.711c0-153.6-73.956-227.556-204.8-227.556-125.156 0-193.422 68.267-193.422 227.556v352.711h113.778z" />
<glyph unicode="&#xe60c;" glyph-name="e-ss13-overline" d="M219.819 174.592l-5.518 36.807h-1.991c-20.48-25.941-55.239-44.316-98.247-44.316-66.901 0-104.391 48.469-104.391 98.93 0 83.911 74.411 126.236 197.177 125.497v5.518c0 21.845-8.818 58.027-67.584 58.027-32.711 0-66.844-10.297-89.316-24.633l-16.384 54.613c24.519 15.019 67.527 29.298 120.036 29.298 106.439 0 137.159-67.584 137.159-139.89v-120.036c0-29.98 1.308-59.392 4.779-79.815h-75.719zM208.896 336.953c-59.335 1.365-115.996-11.605-115.996-62.123 0-32.711 21.163-47.73 47.787-47.73 33.451 0 58.027 21.845 65.479 45.682 2.048 6.144 2.731 13.028 2.731 18.432v45.739zM376.889 174.592c1.365 22.528 2.788 59.335 2.788 93.525v390.884h83.911v-197.916h1.365c20.423 32.028 56.604 53.248 106.439 53.248 81.18 0 139.15-67.584 138.524-168.505 0-119.467-75.776-178.802-150.756-178.802-43.065 0.057-81.294 16.441-105.188 57.401h-1.308l-4.096-49.835h-71.68zM463.531 311.751c0-6.827 0.683-13.653 2.048-19.854 8.875-33.394 38.229-58.652 74.411-58.652 52.508 0 84.594 42.325 84.594 109.17 0 58.652-27.989 106.439-83.968 106.439-34.133 0-64.853-24.576-74.411-61.383-1.252-6.144-2.674-13.653-2.674-21.845v-53.874zM1023.26 184.832c-17.749-8.192-52.508-17.067-94.151-17.067-103.652 0-171.236 66.162-171.236 169.244 0 99.612 68.21 177.38 184.889 177.38 30.72 0 62.123-6.827 81.237-15.644l-15.076-62.805c-13.596 6.087-33.394 12.971-63.431 12.971-64.114 0-102.343-47.047-101.66-107.804 0-68.267 44.373-107.179 101.66-107.179 29.355 0 49.835 6.144 66.162 13.028l11.605-62.123zM0 906.638h1024v-113.778h-1024v113.778z" />
<glyph unicode="&#xe60d;" glyph-name="e-ss14-linethrough" d="M210.148 299.804l-5.461 36.864h-1.991c-20.48-25.941-55.296-44.316-98.304-44.316-66.901 0-104.391 48.412-104.391 98.93 0 83.911 74.411 126.236 197.177 125.497v5.518c0 21.845-8.818 58.027-67.584 58.027-32.711 0-66.844-10.297-89.316-24.633l-16.384 54.556c24.576 15.019 67.584 29.355 120.036 29.355 106.439 0 137.159-67.584 137.159-139.89v-120.036c0-29.98 1.308-59.392 4.779-79.815h-75.719zM199.225 462.222c-59.335 1.365-115.996-11.605-115.996-62.123 0-32.711 21.163-47.73 47.787-47.73 33.451 0 58.027 21.845 65.479 45.682 2.048 6.144 2.731 12.971 2.731 18.432v45.739zM367.218 299.804c1.365 22.528 2.788 59.335 2.788 93.525v390.94h83.911v-197.916h1.365c20.423 32.028 56.604 53.248 106.439 53.248 81.18 0 139.15-67.584 138.524-168.505 0-119.467-75.776-178.802-150.756-178.802-43.008 0-81.237 16.384-105.131 57.344h-1.365l-4.096-49.835h-71.68zM453.916 437.020c0-6.827 0.683-13.653 2.048-19.854 8.875-33.394 38.229-58.652 74.354-58.652 52.508 0 84.594 42.325 84.594 109.17 0 58.652-27.989 106.439-83.968 106.439-34.133 0-64.853-24.576-74.411-61.383-1.308-6.144-2.731-13.653-2.731-21.845v-53.874zM1013.589 310.044c-17.749-8.192-52.508-17.067-94.151-17.067-103.652 0-171.236 66.162-171.236 169.244 0 99.612 68.21 177.38 184.889 177.38 30.72 0 62.123-6.827 81.237-15.644l-15.076-62.805c-13.596 6.087-33.394 12.971-63.431 12.971-64.114 0-102.343-47.047-101.66-107.804 0-68.267 44.373-107.179 101.66-107.179 29.355 0 49.835 6.144 66.162 13.028l11.605-62.123zM0 527.36h1024v-113.778h-1024v113.778z" />
<glyph unicode="&#xe60e;" glyph-name="e-ss15-inc-font-size" d="M640 128h-120.768l-48 124.864h-219.712l-45.376-124.864h-117.76l214.144 549.76h117.376l220.096-549.76zM435.648 345.472l-75.776 204.032-74.24-204.032h150.016zM935.232 640l-167.616 192-152.384-192z" />
<glyph unicode="&#xe60f;" glyph-name="e-ss16-dec-font-size" d="M512 768l166.4-192 153.6 192zM640 128h-89.6l-38.4 96h-166.4l-32-96h-89.6l160 409.6h89.6l166.4-409.6zM486.4 288l-57.6 153.6-57.6-153.6h115.2z" />
<glyph unicode="&#xe610;" glyph-name="e-ss17-fill-color" d="M881.55 404.935c-20.139 115.541-183.068 77.198-183.125 77.198l-64.91 65.024h42.61v311.41h-311.41v-303.161l-275.228-275.285 331.719-331.776 382.521 382.635 22.926-320.171c0-0.057 87.495 206.734 54.898 394.126zM442.539 780.686h155.705v-198.372l-103.196 103.31-52.508-52.508v147.57zM421.205 47.332l-232.732 232.789 306.574 306.574 232.619-232.789-306.46-306.574z" />
<glyph unicode="&#xe611;" glyph-name="e-ss18-font-color" d="M410.226 792.86l-353.337-853.333h194.219l35.556 170.667h443.449l37.604-170.667h199.396l-363.236 853.333h-193.65zM382.35 223.972l122.482 322.844 124.985-322.844h-247.467z" />
<glyph unicode="&#xe612;" glyph-name="e-ss19-align-left" d="M9.444 849.749h853.333v-56.889h-853.333v56.889zM9.444 622.194h586.695v-56.889h-586.695v56.889zM9.444 167.083h586.695v-56.889h-586.695v56.889zM9.444 394.638h853.333v-56.889h-853.333v56.889z" />
<glyph unicode="&#xe613;" glyph-name="e-ss20-align-center" d="M0 792.86h853.333v-56.889h-853.333v56.889zM113.778 565.305h625.778v-56.889h-625.778v56.889zM113.778 110.194h625.778v-56.889h-625.778v56.889zM0 337.749h853.333v-56.889h-853.333v56.889z" />
<glyph unicode="&#xe614;" glyph-name="e-ss21-align-right" d="M0 849.749h853.333v-56.889h-853.333v56.889zM284.444 622.194h568.889v-56.889h-568.889v56.889zM284.444 167.083h568.889v-56.889h-568.889v56.889zM0 394.638h853.333v-56.889h-853.333v56.889z" />
<glyph unicode="&#xe615;" glyph-name="e-ss22-top-align" d="M227.556 735.972h568.889v-56.889h-568.889v56.889zM56.889 906.638h910.222v-56.889h-910.222v56.889zM56.889 565.305h910.222v-56.889h-910.222v56.889z" />
<glyph unicode="&#xe616;" glyph-name="e-ss23-mid-align" d="M238.933 451.527h546.133v-56.889h-546.133v56.889zM56.889 622.194h910.222v-56.889h-910.222v56.889zM56.889 280.86h910.222v-56.889h-910.222v56.889z" />
<glyph unicode="&#xe617;" glyph-name="e-ss24-bottom-align" d="M238.933 223.972h546.133v-56.889h-546.133v56.889zM56.889 394.638h910.222v-56.889h-910.222v56.889zM56.889 53.305h910.222v-56.889h-910.222v56.889z" />
<glyph unicode="&#xe618;" glyph-name="e-ss25-justify" d="M56.889 849.749h910.222v-56.889h-910.222v56.889zM56.889 394.638h910.222v-56.889h-910.222v56.889zM56.889 167.083h910.222v-56.889h-910.222v56.889zM56.889 622.194h910.222v-56.889h-910.222v56.889z" />
<glyph unicode="&#xe619;" glyph-name="e-ss26-indent" d="M170.667 792.86h284.444v-56.889h-284.444v56.889zM512 337.749h284.444v-56.889h-284.444v56.889zM170.667 110.194h284.444v-56.889h-284.444v56.889zM512 792.86h398.222v-56.889h-398.222v56.889zM512 565.305h398.222v-56.889h-398.222v56.889zM512 110.194h398.222v-56.889h-398.222v56.889zM284.444 296.164l168.903 147.854-168.903 172.146v-107.748h-284.444v-113.778h284.444z" />
<glyph unicode="&#xe61a;" glyph-name="e-ss27-oudent" d="M170.667 849.749h284.444v-56.889h-284.444v56.889zM512 394.638h284.444v-56.889h-284.444v56.889zM170.667 167.083h284.444v-56.889h-284.444v56.889zM512 849.749h398.222v-56.889h-398.222v56.889zM512 622.194h398.222v-56.889h-398.222v56.889zM512 167.083h398.222v-56.889h-398.222v56.889zM170.667 353.052l-168.903 147.854 168.903 172.146v-107.748h284.444v-113.778h-284.444z" />
<glyph unicode="&#xe61b;" glyph-name="e-ss28-wraptext" d="M56.889 504.889h-56.889v-512h625.778v512h-568.889zM568.889 49.778h-512v398.222h512v-398.222zM910.222 732.444v56.889h-284.444v113.778h-625.778v-284.444h625.778v113.778h284.444zM568.889 675.556h-512v170.667h512v-56.889h-398.222v-56.889h398.222v-56.889zM113.778 391.111h398.222v-170.667h-398.222v170.667zM113.778 163.556h398.222v-56.889h-398.222v56.889zM796.444 561.778h56.889v-56.889h-56.889v56.889zM796.444 408.178v96.711h-56.889v-56.889h-56.889v-45.511h56.889v-68.267h56.889v68.267zM796.444 334.222h56.889v-56.889h-56.889v56.889zM967.111 675.556v-227.556h-113.778v-56.889h170.667v284.444z" />
<glyph unicode="&#xe61c;" glyph-name="e-ss29-undo" d="M610.304 654.848h-280.576l116.736 137.216-2.048 2.048h-167.936l-169.984-200.704 165.888-196.608h169.984l-120.832 143.36h284.672c104.448 0 190.464-57.344 190.464-161.792s-57.344-161.792-161.792-161.792h-32.768v-114.688h32.768c167.936 0 276.48 108.544 276.48 276.48s-133.12 276.48-301.056 276.48z" />
<glyph unicode="&#xe61d;" glyph-name="e-ss30-redo" d="M413.696 654.848h278.528l-116.736 137.216 2.048 2.048h167.936l169.984-200.704-165.888-196.608h-169.984l120.832 143.36h-286.72c-104.448 0-190.464-57.344-190.464-161.792s57.344-161.792 161.792-161.792h32.768v-114.688h-32.768c-167.936 0-276.48 108.544-276.48 276.48s137.216 276.48 305.152 276.48z" />
<glyph unicode="&#xe61e;" glyph-name="e-ss31-accounting" d="M455.111-3.584v126.407c0 5.291-55.012 14.507-80.896 27.819-25.884 13.255-38.286 34.816-57.060 64.455-18.887 29.753-24.804 65.934-27.876 108.828l85.504 15.588c6.428-44.43-0.853-77.028 15.417-97.792 23.268-29.412 64.967-45.796 64.967-49.095v262.884c0 6.485-48.868 19.57-84.309 39.481-26.396 14.677-36.807 35.044-51.029 61.042s-16.384 55.58-16.384 88.576c0 58.709 3.584 106.268 45.056 142.734 27.876 24.519 106.61 39.424 106.61 44.999v17.408h113.778v-17.465c0-4.665 73.33-18.66 101.547-42.155 36.068-30.037 51.428-71.225 58.766-123.506l-88.519-12.8c-4.892 32.37-3.982 57.287-19.456 74.638-15.417 17.237-52.338 28.672-52.338 34.133v-238.137c0-10.411 56.377-18.489 69.916-24.348 25.6-11.378 40.277-25.031 56.434-41.301 16.27-16.27 25.486-35.499 34.247-57.799 8.704-22.414 11.548-46.592 11.548-72.59 0-57.173-6.258-104.903-42.724-143.132-36.295-38.229-72.476-58.709-129.365-61.554v-127.317h-113.835zM455.111 763.449c0-4.949-37.547-17.806-56.092-38.571s-17.863-45.397-17.863-73.842c0-28.16-7.054-51.655 8.761-70.599 15.701-19.058 65.195-34.247 65.195-45.511v228.523zM568.889 192.626c0 3.982 45.909 17.863 66.844 41.813 20.992 23.723 25.088 53.362 25.088 88.405 0 30.037 2.105 54.158-12.686 72.363-14.848 18.261-79.246 34.532-79.246 48.924v-251.506zM464.612 887.182h47.957v-47.9h-47.957v47.9zM512.569 887.182h47.9v-47.9h-47.9v47.9zM464.612 935.083h95.858v-47.9h-95.858v47.9z" />
<glyph unicode="&#xe61f;" glyph-name="e-ss32-percent" d="M793.259 778.524l-428.715-786.546-75.662 15.019 429.966 786.204 74.411-14.677zM368.071 710.201c-33.564 34.532-74.809 51.826-123.62 51.826-48.754 0-89.884-17.636-123.278-52.85-33.394-35.271-50.062-81.294-50.062-138.069 0-55.012 16.27-99.328 48.697-133.12 32.54-33.678 73.387-50.574 122.596-50.574 49.778 0 91.591 17.465 125.326 52.395 33.792 34.873 50.631 80.441 50.631 136.42 0 54.727-16.725 99.442-50.29 133.973zM280.121 454.485c-3.868-16.1-9.671-27.762-17.579-35.044-4.494-4.153-10.468-6.258-18.091-6.258-6.884 0-12.857 2.276-17.977 6.713-8.306 7.566-14.165 18.944-17.579 34.133-5.86 26.453-8.761 63.943-8.761 112.469 0 60.928 2.162 101.035 6.372 120.491 4.38 19.456 10.809 33.052 19.399 41.017 4.836 4.494 11.036 6.713 18.546 6.713 7.623 0 13.426-1.934 17.579-5.689 8.59-8.306 14.848-21.39 18.603-39.196 5.518-25.771 8.306-67.584 8.306-125.383-0.057-47.161-3.015-83.797-8.818-109.966zM930.987 341.276c-33.508 34.247-75.207 51.314-125.099 51.314-48.811 0-89.6-17.351-122.254-52.11-32.711-34.759-49.038-79.758-49.038-135.225 0-55.012 16.782-100.068 50.347-135.168 33.564-35.044 74.297-52.622 122.084-52.622 48.128 0 89.259 17.579 123.335 52.622 33.849 35.1 50.972 80.668 50.972 136.761 0 55.353-16.782 100.181-50.347 134.428zM843.548 90.681c-4.153-17.863-10.468-30.72-19.058-38.684-4.153-3.755-9.5-5.689-16.043-5.689-7.168 0-13.028 2.048-17.579 6.201-8.875 7.908-15.303 20.594-19.058 38.116-5.177 24.804-7.737 65.365-7.737 121.799 0 53.077 2.219 88.917 6.713 107.634 4.437 18.716 10.809 31.972 19.058 39.424 4.836 4.153 10.695 6.201 17.522 6.201 7.964 0 13.995-1.82 18.148-5.746 8.192-7.225 14.393-19.74 18.546-37.604 5.461-24.804 8.249-64 8.249-117.589 0-50.916-2.901-88.86-8.761-114.062z" />
<glyph unicode="&#xe620;" glyph-name="e-ss33-comma" d="M284.444 53.305v52.622c113.778 39.936 172.373 91.477 214.244 154.852 41.87 63.431 69.12 128.171 69.12 194.276 0 13.653 0.341 23.95-5.234 31.118-5.575 6.372-9.614 9.557-15.132 9.557-4.779 0-11.093-2.788-20.651-8.306-23.154-13.54-51.484-20.366-85.788-20.366-46.99 0-87.666 18.318-122.254 55.012-34.759 36.693-51.996 79.701-51.996 129.138 0 52.679 19.968 98.873 59.79 138.752 39.879 39.822 88.178 59.79 144.782 59.79 68.551 0 127.090-26.567 175.787-79.531s72.988-125.668 72.988-218.226c0-114.005-47.218-215.211-116.281-303.787-68.892-88.462-148.708-153.429-319.374-194.901z" />
<glyph unicode="&#xe621;" glyph-name="e-ss34-increasedecimal" d="M621.454 697.742c0 43.406 4.38 78.336 13.198 104.789 8.818 26.51 21.959 46.82 39.31 61.212 17.522 14.393 39.367 21.504 65.707 21.504 19.513 0 36.523-3.925 51.143-11.833 14.734-8.021 26.908-19.456 36.466-34.361s17.010-33.109 22.528-54.5c5.404-21.504 8.135-50.46 8.135-86.812 0-43.065-4.324-77.767-13.084-104.22-8.704-26.567-21.845-46.933-39.14-61.326-17.465-14.507-39.424-21.732-65.934-21.732-34.987 0-62.407 12.743-82.375 38.059-23.95 30.606-35.954 80.27-35.954 149.22zM667.193 697.742c0-60.245 7.054-100.409 20.935-120.32s31.118-29.81 51.541-29.81 37.604 9.956 51.598 29.924c13.881 20.139 20.821 60.188 20.821 120.206 0 60.416-6.94 100.636-20.821 120.434-13.938 19.854-31.289 29.81-52.053 29.81-20.423 0-36.75-8.761-48.924-26.34-15.36-22.3-23.097-63.602-23.097-123.904zM268.459 207.929c0 43.463 4.324 78.336 13.198 104.789 8.875 26.396 21.902 46.82 39.31 61.212 17.408 14.336 39.253 21.504 65.707 21.504 19.399 0 36.523-3.925 51.143-11.947 14.734-7.908 26.795-19.342 36.352-34.247 9.614-15.019 17.124-33.109 22.528-54.67 5.461-21.333 8.192-50.233 8.192-86.642 0-43.122-4.38-77.881-13.084-104.334s-21.732-46.82-39.14-61.212c-17.408-14.507-39.31-21.732-65.877-21.732-34.987 0-62.464 12.743-82.318 38.059-24.121 30.492-36.011 80.327-36.011 149.22zM314.254 207.929c0-60.245 6.94-100.409 20.878-120.32 13.881-19.911 31.118-29.924 51.541-29.924s37.604 10.069 51.541 30.037c13.938 20.082 20.821 60.132 20.821 120.206 0 60.359-6.884 100.636-20.821 120.434s-31.232 29.753-51.996 29.753c-20.423 0-36.75-8.761-48.981-26.34-15.36-22.3-22.983-63.602-22.983-123.847zM600.007 207.929c0 43.463 4.437 78.336 13.198 104.789 8.875 26.396 21.959 46.82 39.367 61.212 17.465 14.336 39.31 21.504 65.65 21.504 19.456 0 36.58-3.925 51.2-11.947 14.62-7.908 26.852-19.342 36.409-34.247 9.5-15.019 17.067-33.109 22.471-54.67 5.518-21.333 8.192-50.233 8.192-86.642 0-43.122-4.324-77.881-13.028-104.334s-21.902-46.82-39.253-61.212c-17.408-14.507-39.31-21.732-65.877-21.732-34.93 0-62.407 12.743-82.318 38.059-24.007 30.492-36.011 80.327-36.011 149.22zM645.746 207.929c0-60.245 6.997-100.409 20.935-120.32s31.118-29.924 51.541-29.924 37.604 10.069 51.598 30.037c13.824 20.082 20.821 60.132 20.821 120.206 0 60.359-6.997 100.636-20.821 120.434-13.995 19.797-31.403 29.753-52.11 29.753-20.423 0-36.75-8.761-48.981-26.34-15.303-22.3-22.983-63.602-22.983-123.847zM121.97 707.925l162.475-165.547v136.761h170.667v56.889h-170.667v136.761zM159.403 91.136h49.892v-50.517h-49.892v50.517zM508.587 559.673h49.892v-50.517h-49.892v50.517z" />
<glyph unicode="&#xe622;" glyph-name="e-ss35-decreasedecimal" d="M621.454 185.685c0 43.406 4.38 78.336 13.198 104.789 8.818 26.51 21.959 46.82 39.31 61.212 17.522 14.393 39.31 21.504 65.707 21.504 19.513 0 36.523-3.925 51.143-11.833 14.734-8.021 26.908-19.456 36.466-34.361s17.010-33.109 22.528-54.5c5.404-21.504 8.135-50.46 8.135-86.812 0-43.065-4.324-77.767-13.084-104.22-8.704-26.567-21.845-46.933-39.14-61.326-17.465-14.507-39.424-21.732-65.934-21.732-34.987 0-62.407 12.743-82.375 38.059-23.95 30.606-35.954 80.327-35.954 149.22zM667.193 185.685c0-60.245 7.054-100.409 20.935-120.32s31.118-29.81 51.541-29.81 37.604 9.956 51.598 29.924c13.881 20.139 20.821 60.188 20.821 120.206 0 60.416-6.94 100.636-20.821 120.434-13.995 19.854-31.346 29.753-52.11 29.753-20.423 0-36.75-8.761-48.924-26.34-15.303-22.187-23.040-63.545-23.040-123.847zM268.459 719.872c0 43.463 4.324 78.336 13.198 104.789 8.818 26.453 21.902 46.82 39.253 61.212 17.465 14.336 39.31 21.504 65.764 21.504 19.399 0 36.523-3.925 51.143-11.947 14.734-7.908 26.795-19.342 36.352-34.247 9.614-15.019 17.124-33.109 22.528-54.67 5.461-21.333 8.192-50.233 8.192-86.642 0-43.122-4.38-77.881-13.084-104.334s-21.788-46.82-39.253-61.212c-17.351-14.507-39.31-21.732-65.877-21.732-34.987 0-62.464 12.743-82.318 38.059-24.007 30.492-35.897 80.327-35.897 149.22zM314.254 719.872c0-60.245 6.94-100.409 20.878-120.32 13.881-19.911 31.118-29.924 51.541-29.924s37.604 10.069 51.541 30.037c13.938 20.082 20.821 60.132 20.821 120.206 0 60.359-6.884 100.636-20.821 120.434s-31.289 29.753-52.053 29.753c-20.423 0-36.75-8.761-48.981-26.34-15.36-22.3-22.926-63.545-22.926-123.847zM600.007 719.872c0 43.463 4.437 78.336 13.198 104.789 8.818 26.453 21.959 46.82 39.31 61.212 17.522 14.336 39.367 21.504 65.707 21.504 19.456 0 36.58-3.925 51.2-11.947 14.62-7.908 26.852-19.342 36.409-34.247 9.5-15.019 17.067-33.109 22.471-54.67 5.518-21.333 8.192-50.233 8.192-86.642 0-43.122-4.324-77.881-13.028-104.334s-21.902-46.82-39.253-61.212c-17.408-14.507-39.31-21.732-65.877-21.732-34.93 0-62.407 12.743-82.318 38.059-24.007 30.492-36.011 80.327-36.011 149.22zM645.746 719.872c0-60.245 6.997-100.409 20.935-120.32s31.118-29.924 51.541-29.924 37.604 10.069 51.598 30.037c13.824 20.082 20.821 60.132 20.821 120.206 0 60.359-6.997 100.636-20.821 120.434-13.995 19.797-31.403 29.753-52.11 29.753-20.423 0-36.75-8.761-48.981-26.34-15.303-22.3-22.983-63.545-22.983-123.847zM503.865 232.391l-162.532 165.547v-117.077h-170.667v-56.889h170.667v-156.501zM159.403 603.079h49.892v-50.517h-49.892v50.517zM508.587 47.673h49.892v-50.517h-49.892v50.517z" />
<glyph unicode="&#xe623;" glyph-name="e-ss36-conditional-formatting" d="M394.24 590.5h207.565v-86.18h-207.565v86.18zM394.24 711.68h164.966v-75.1h-164.966v75.1zM650.363 320.328h118.19v-15.36h-118.19v15.36zM650.363 261.222h118.19v-15.36h-118.19v15.36zM670.167 202.035l69.53 163.553 11.981-1.434-69.714-163.533-11.796 1.413zM171.295 624.599h663.736v-20.48h-663.736v20.48zM171.295 491.008h663.736v-20.48h-663.736v20.48zM394.24 327.68h151.532v-92.938h-151.532v92.938zM171.295 354.693h374.456v-15.073h-374.456v15.073zM867.84 150.18h-306.463v267.878h306.463v-267.878zM576.737 165.54h275.743v237.158h-275.743v-237.158zM394.24 457.605v-91.996h143.278v43.295c0 9.155 8.643 16.548 19.333 16.548h17.838v32.154h-180.449zM362.926 730.604h20.48v-517.038h-20.48v517.038zM617.984 730.604h14.93v-296.182h-14.93v296.182zM545.772 221.082h-367.002v502.006h648.827v-288.666h14.909v303.718h-678.666v-532.111h381.932z" />
<glyph unicode="&#xe624;" glyph-name="e-ss37-hlcellrules" horiz-adv-x="1260" d="M315.077 172.308h-236.308v157.538h236.308v78.769h-236.308v78.769h236.308v78.769h-236.308v157.538h236.308v78.769h-236.308v78.769h1024v78.769h-1102.769v-866.462h315.077zM1181.538 802.462h-787.692v-866.462h866.462v866.462h-78.769zM1181.538 14.769h-708.923v708.923h708.923v-708.923zM1102.769 243.2l-236.308 110.277v-55.138l165.415-78.769-165.415-63.015v-63.015l236.308 110.277zM787.692 440.123l-165.415 70.892 165.415 70.892v63.015l-236.308-110.277v-47.262l236.308-102.4zM551.385 172.308h236.308v-78.769h-236.308v78.769zM551.385 329.846h236.308v-78.769h-236.308v78.769z" />
<glyph unicode="&#xe625;" glyph-name="e-ss38-greater-than" horiz-adv-x="1260" d="M630.154 172.308h-236.308v157.538h236.308v78.769h-236.308v78.769h236.308v78.769h157.538v157.538h236.308v-157.538h78.769v393.846h-1102.769v-866.462h630.154v78.769zM787.692 881.231h236.308v-78.769h-236.308v78.769zM393.846 881.231h315.077v-78.769h-315.077v78.769zM315.077 172.308h-236.308v157.538h236.308v-157.538zM315.077 408.615h-236.308v78.769h236.308v-78.769zM315.077 566.154h-236.308v157.538h236.308v-157.538zM315.077 802.462h-236.308v78.769h236.308v-78.769zM1181.538 487.385h-472.615v-551.385h551.385v551.385h-78.769zM787.692 14.769v393.846h393.846v-393.846h-393.846zM866.462 353.477v-55.138l165.415-78.769-165.415-63.015v-63.015l236.308 110.277v39.385z" />
<glyph unicode="&#xe626;" glyph-name="e-ss39-less-than" horiz-adv-x="1260" d="M630.154 172.308h-236.308v157.538h236.308v78.769h-236.308v78.769h236.308v78.769h157.538v157.538h236.308v-157.538h78.769v393.846h-1102.769v-866.462h630.154v78.769zM787.692 881.231h236.308v-78.769h-236.308v78.769zM393.846 881.231h315.077v-78.769h-315.077v78.769zM315.077 172.308h-236.308v157.538h236.308v-157.538zM315.077 408.615h-236.308v78.769h236.308v-78.769zM315.077 566.154h-236.308v157.538h236.308v-157.538zM315.077 802.462h-236.308v78.769h236.308v-78.769zM1181.538 487.385h-472.615v-551.385h551.385v551.385h-78.769zM787.692 14.769v393.846h393.846v-393.846h-393.846zM1102.769 298.338v55.138l-236.308-110.277v-39.385l236.308-110.277v63.015l-165.415 63.015z" />
<glyph unicode="&#xe627;" glyph-name="e-ss40-between" horiz-adv-x="1303" d="M1210.182 960h-1210.182v-1024h1303.273v1024h-93.091zM372.364 29.091h-279.273v186.182h279.273v-186.182zM372.364 308.364h-279.273v93.091h279.273v-93.091zM372.364 773.818h-279.273v93.091h279.273v-93.091zM837.818 29.091h-372.364v186.182h372.364v-186.182zM837.818 494.545h-372.364v186.182h372.364v-186.182zM837.818 773.818h-372.364v93.091h372.364v-93.091zM1210.182 29.091h-279.273v186.182h279.273v-186.182zM1210.182 308.364h-279.273v93.091h279.273v-93.091zM1210.182 773.818h-279.273v93.091h279.273v-93.091z" />
<glyph unicode="&#xe628;" glyph-name="e-ss41-equal-to" horiz-adv-x="1260" d="M630.154 172.308h-236.308v157.538h236.308v78.769h-236.308v78.769h236.308v78.769h157.538v157.538h236.308v-157.538h78.769v393.846h-1102.769v-866.462h630.154v78.769zM787.692 881.231h236.308v-78.769h-236.308v78.769zM393.846 881.231h315.077v-78.769h-315.077v78.769zM315.077 172.308h-236.308v157.538h236.308v-157.538zM315.077 408.615h-236.308v78.769h236.308v-78.769zM315.077 566.154h-236.308v157.538h236.308v-157.538zM315.077 802.462h-236.308v78.769h236.308v-78.769zM1181.538 487.385h-472.615v-551.385h551.385v551.385h-78.769zM787.692 14.769v393.846h393.846v-393.846h-393.846zM866.462 329.846h236.308v-78.769h-236.308v78.769zM866.462 172.308h236.308v-78.769h-236.308v78.769z" />
<glyph unicode="&#xe629;" glyph-name="e-ss42-text-that-contains" horiz-adv-x="1232" d="M307.97 166.977h-230.977v153.985h230.977v76.992h-230.977v76.992h230.977v76.992h-230.977v153.985h1000.902v230.977h-1077.895v-846.917h307.97v76.992zM769.925 859.91h230.977v-76.992h-230.977v76.992zM384.962 859.91h307.97v-76.992h-307.97v76.992zM76.992 859.91h230.977v-76.992h-230.977v76.992zM1154.887 628.932h-769.925v-692.932h846.917v692.932h-76.992zM1154.887 12.992h-692.932v538.947h692.932v-538.947zM562.045 159.278c0-23.098 7.699-38.496 23.098-53.895s30.797-23.098 61.594-23.098c30.797 0 61.594 15.398 76.992 46.195v0-38.496h38.496v169.383c0 61.594-30.797 92.391-92.391 92.391-30.797 0-61.594-7.699-84.692-23.098v-38.496c23.098 23.098 53.895 30.797 84.692 30.797s53.895-23.098 53.895-61.594l-76.992-7.699c-61.594-15.398-84.692-46.195-84.692-92.391zM716.030 220.872v-23.098c0-23.098-7.699-38.496-23.098-53.895s-30.797-23.098-46.195-23.098c-15.398 0-23.098 7.699-38.496 15.398-7.699 7.699-15.398 15.398-15.398 30.797s7.699 30.797 15.398 38.496 23.098 7.699 38.496 15.398h69.293zM877.714 128.481v0c15.398-30.797 46.195-38.496 76.992-38.496 38.496 0 61.594 15.398 84.692 38.496s30.797 61.594 30.797 100.090c0 38.496-7.699 69.293-30.797 92.391-15.398 23.098-46.195 30.797-76.992 30.797-38.496 0-69.293-15.398-84.692-53.895v0 169.383h-38.496v-369.564h38.496v30.797zM877.714 228.571c0 23.098 7.699 46.195 23.098 61.594s30.797 23.098 53.895 23.098c23.098 0 38.496-7.699 53.895-23.098s23.098-38.496 23.098-69.293c0-30.797-7.699-61.594-23.098-76.992s-30.797-30.797-53.895-30.797c-23.098 0-38.496 7.699-53.895 23.098s-23.098 30.797-23.098 53.895v38.496z" />
<glyph unicode="&#xe62a;" glyph-name="e-ss43-dataocccur" horiz-adv-x="1365" d="M341.333 106.667h-256v170.667h256v85.333h-256v85.333h256v85.333h-256v170.667h256v-85.333h512v85.333h256v-85.333h85.333v341.333h-1194.667v-938.667h341.333v85.333zM853.333 874.667h256v-85.333h-256v85.333zM426.667 874.667h341.333v-85.333h-341.333v85.333zM85.333 874.667h256v-85.333h-256v85.333zM426.667 533.333v-597.333h938.667v597.333h-938.667zM768 448v-85.333h-85.333v85.333h85.333zM768 277.333v-85.333h-85.333v85.333h85.333zM512 448h85.333v-85.333h-85.333v85.333zM512 277.333h85.333v-85.333h-85.333v85.333zM512 21.333v85.333h85.333v-85.333h-85.333zM682.667 21.333v85.333h85.333v-85.333h-85.333zM1280 21.333h-426.667v426.667h426.667v-426.667zM1194.667 192v170.667h-256v-256h256v85.333zM1024 192v85.333h85.333v-85.333h-85.333z" />
<glyph unicode="&#xe62b;" glyph-name="e-ss44-duplicate-values" d="M384 736h128v-32h-128v32zM384 544h128v-32h-128v32zM384 352h128v-32h-128v32zM384 160h128v-32h-128v32zM64 832v-800h864v800h-864zM640 800v-160h-288v160h288zM352 448v160h288v-160h-288zM640 416v-160h-288v160h288zM96 800h224v-160h-224v160zM96 608h224v-160h-224v160zM96 416h224v-160h-224v160zM96 64v160h224v-160h-224zM352 64v160h288v-160h-288zM896 64h-224v160h224v-160zM896 256h-224v160h224v-160zM896 448h-224v160h224v-160zM672 640v160h224v-160h-224z" />
<glyph unicode="&#xe62c;" glyph-name="e-ss45-top-10item" d="M64 672h288v-32h-288v32zM672 672h256v-32h-256v32zM64 512h288v-32h-288v32zM672 512h256v-32h-256v32zM320 800h32v-640h-32v640zM96 320h480v-32h-480v32zM576 568v49.088l-73.28 80.896-19.2 24.544-99.52-105.696v-48.672l4.416-0.224 91.584 88.16v-240.096h32v240.096zM640 800h32v-384h-32v384zM608 384h32v-256h-32v256zM608 160h320v-32h-320v32zM896 384h32v-256h-32v256zM608 384h320v-32h-320v32zM672 320h64v-32h-64v32zM704 320h32v-128h-32v128zM800 320h32v-32h-32v32zM768 288h32v-64h-32v64zM832 288h32v-64h-32v64zM800 224h32v-32h-32v32zM544 160h32v-32h-32v32zM896 800v-384h32v384zM96 800h-32v-672h480v32h-448zM64 832h864v-32h-864v32z" />
<glyph unicode="&#xe62d;" glyph-name="e-ss46-top-percent" d="M64 640h288v-32h-288v32zM672 640h256v-32h-256v32zM64 480h288v-32h-288v32zM672 480h256v-32h-256v32zM320 768h32v-640h-32v640zM96 288h480v-32h-480v32zM608 549.472v49.088l-73.28 80.896-19.2 24.544-99.52-105.696v-48.672l4.416-0.224 91.584 88.16v-253.568h32v253.568zM640 768h32v-384h-32v384zM608 352h32v-256h-32v256zM608 128h320v-32h-320v32zM896 352h32v-256h-32v256zM608 352h320v-32h-320v32zM544 128h32v-32h-32v32zM896 768v-384h32v384zM96 768h-32v-672h480v32h-448zM64 800h864v-32h-864v32zM822.944 290.72l-75.328-138.272-13.344 2.656 75.52 138.144 13.152-2.528zM748.224 278.688c-5.92 6.080-13.184 9.056-21.76 9.056-8.544 0-15.84-3.104-21.664-9.216-5.92-6.208-8.8-14.336-8.8-24.352 0-9.664 2.88-17.408 8.544-23.328 5.792-5.92 12.96-8.864 21.568-8.864 8.736 0 16.096 3.008 22.016 9.184 5.952 6.144 8.864 14.080 8.864 23.968 0 9.632-2.944 17.504-8.768 23.552zM732.768 233.696c-0.736-2.816-1.728-4.8-3.104-6.080-0.8-0.768-1.888-1.088-3.232-1.088-1.184 0-2.272 0.352-3.2 1.12-1.408 1.376-2.496 3.36-3.072 6.016-1.024 4.64-1.504 11.264-1.504 19.712 0 10.784 0.352 17.824 1.088 21.248 0.768 3.392 1.888 5.824 3.424 7.2 0.8 0.8 1.888 1.152 3.232 1.152s2.4-0.352 3.072-0.96c1.536-1.44 2.656-3.744 3.296-6.88 0.928-4.576 1.472-11.872 1.472-22.048 0.032-8.288-0.48-14.752-1.472-19.392zM847.2 213.856c-5.952 5.984-13.28 8.992-22.048 8.992-8.576 0-15.744-3.040-21.44-9.152-5.76-6.080-8.672-14.048-8.672-23.744s2.976-17.632 8.864-23.744c5.952-6.208 13.088-9.28 21.44-9.28 8.48 0 15.744 3.072 21.696 9.28 5.984 6.112 8.992 14.112 8.992 24.032-0.032 9.696-2.944 17.536-8.832 23.616zM831.776 169.824c-0.704-3.168-1.824-5.472-3.328-6.848-0.768-0.672-1.728-0.96-2.816-0.96-1.248 0-2.336 0.32-3.136 1.056-1.568 1.44-2.688 3.616-3.328 6.752-0.928 4.352-1.376 11.424-1.376 21.376 0 9.344 0.448 15.616 1.216 18.944 0.768 3.264 1.92 5.632 3.296 6.88 0.896 0.736 1.888 1.088 3.136 1.088 1.408 0 2.464-0.32 3.168-0.96 1.44-1.248 2.528-3.424 3.296-6.592 0.928-4.352 1.408-11.264 1.408-20.704-0.032-8.992-0.512-15.68-1.536-20.032z" />
<glyph unicode="&#xe62e;" glyph-name="e-ss47-bottom-10-items" d="M64 640h288v-32h-288v32zM672 640h256v-32h-256v32zM64 480h288v-32h-288v32zM672 480h256v-32h-256v32zM320 768h32v-640h-32v640zM96 288h480v-32h-480v32zM416 538.496v-49.088l73.28-80.896 19.2-24.544 99.52 105.696v48.672l-4.416 0.224-91.584-88.16v253.6h-32v-253.6zM640 768h32v-384h-32v384zM608 352h32v-256h-32v256zM608 128h320v-32h-320v32zM896 352h32v-256h-32v256zM608 352h320v-32h-320v32zM672 288h64v-32h-64v32zM704 288h32v-128h-32v128zM800 288h32v-32h-32v32zM768 256h32v-64h-32v64zM832 256h32v-64h-32v64zM800 192h32v-32h-32v32zM544 128h32v-32h-32v32zM896 768v-384h32v384zM96 768h-32v-672h480v32h-448zM64 800h864v-32h-864v32z" />
<glyph unicode="&#xe62f;" glyph-name="e-ss48-bottom-percent" d="M64 640h288v-32h-288v32zM672 640h256v-32h-256v32zM64 480h288v-32h-288v32zM672 480h256v-32h-256v32zM320 768h32v-640h-32v640zM96 288h480v-32h-480v32zM416 538.496v-49.088l73.28-80.896 19.2-24.544 99.52 105.696v48.672l-4.416 0.224-91.584-88.16v253.6h-32v-253.6zM640 768h32v-384h-32v384zM608 352h32v-256h-32v256zM608 128h320v-32h-320v32zM896 352h32v-256h-32v256zM608 352h320v-32h-320v32zM544 128h32v-32h-32v32zM896 768v-384h32v384zM96 768h-32v-672h480v32h-448zM64 800h864v-32h-864v32zM822.944 290.72l-75.328-138.272-13.344 2.656 75.52 138.144 13.152-2.528zM748.224 278.688c-5.92 6.080-13.184 9.056-21.76 9.056-8.544 0-15.84-3.104-21.664-9.216-5.92-6.208-8.8-14.336-8.8-24.352 0-9.664 2.88-17.408 8.544-23.328 5.792-5.92 12.96-8.864 21.568-8.864 8.736 0 16.096 3.008 22.016 9.184 5.952 6.144 8.864 14.080 8.864 23.968 0 9.632-2.944 17.504-8.768 23.552zM732.768 233.696c-0.736-2.816-1.728-4.8-3.104-6.080-0.8-0.768-1.888-1.088-3.232-1.088-1.184 0-2.272 0.352-3.2 1.12-1.408 1.376-2.496 3.36-3.072 6.016-1.024 4.64-1.504 11.264-1.504 19.712 0 10.784 0.352 17.824 1.088 21.248 0.768 3.392 1.888 5.824 3.424 7.2 0.8 0.8 1.888 1.152 3.232 1.152s2.4-0.352 3.072-0.96c1.536-1.44 2.656-3.744 3.296-6.88 0.928-4.576 1.472-11.872 1.472-22.048 0.032-8.288-0.48-14.752-1.472-19.392zM847.2 213.856c-5.952 5.984-13.28 8.992-22.048 8.992-8.576 0-15.744-3.040-21.44-9.152-5.76-6.080-8.672-14.048-8.672-23.744s2.976-17.632 8.864-23.744c5.952-6.208 13.088-9.28 21.44-9.28 8.48 0 15.744 3.072 21.696 9.28 5.984 6.112 8.992 14.112 8.992 24.032-0.032 9.696-2.944 17.536-8.832 23.616zM831.776 169.824c-0.704-3.168-1.824-5.472-3.328-6.848-0.768-0.672-1.728-0.96-2.816-0.96-1.248 0-2.336 0.32-3.136 1.056-1.568 1.44-2.688 3.616-3.328 6.752-0.928 4.352-1.376 11.424-1.376 21.376 0 9.344 0.448 15.616 1.216 18.944 0.768 3.264 1.92 5.632 3.296 6.88 0.896 0.736 1.888 1.088 3.136 1.088 1.408 0 2.464-0.32 3.168-0.96 1.44-1.248 2.528-3.424 3.296-6.592 0.928-4.352 1.408-11.264 1.408-20.704-0.032-8.992-0.512-15.68-1.536-20.032z" />
<glyph unicode="&#xe630;" glyph-name="e-ss49-above-avg" d="M64 640h288v-32h-288v32zM672 640h256v-32h-256v32zM64 480h288v-32h-288v32zM672 480h256v-32h-256v32zM320 768h32v-640h-32v640zM96 288h448v-32h-448v32zM576 536v49.088l-73.28 80.896-19.2 24.544-99.52-105.696v-48.672l4.416-0.224 91.584 88.16v-240.096h32v240.096zM640 768h32v-352h-32v352zM576 384h32v-320h-32v320zM576 64h352v-32h-352v32zM896 352h32v-288h-32v288zM608 384h320v-32h-320v32zM896 768v-352h32v352zM96 768h-32v-672h480v32h-448zM64 800h864v-32h-864v32zM798.784 220.512c4.224-17.952 40.864-6.432 31.744 18.304-13.28 28.256-62.016 15.296-69.312-9.632-4.128 7.712-6.784 13.92-12.608 18.304-31.104 23.52-63.712-7.008-75.168-28.896-3.2-6.112-10.72-15.232-3.808-20.256 6.944-1.44 7.008 7.712 8.672 11.552 6.4 15.264 17.728 30.464 32.704 35.68 37.376 12.768 30.912-30.048 25.12-54.016-8.704-35.904-17.984-105.152-63.616-82.912 8.96 2.656 18.24 11.424 15.36 23.168-3.872 16.32-29.28 4.768-31.744-5.824-5.376-22.496 17.376-31.488 35.68-29.856 17.504 1.632 27.104 16.928 34.624 26.016 6.4-17.152 20.992-27.776 41.472-26.016 21.024 1.792 35.712 19.424 44.352 34.688 3.776 6.72 11.424 16.704 4.736 23.136-7.488 0.096-6.752-9.184-8.672-13.472-6.272-14.592-18.144-29.696-32.704-34.72-17.44-5.984-30.176 2.976-30.816 20.224-0.736 16.48 7.36 38.24 13.44 61.728 8.864 34.4 17.056 71.872 55.904 54.912-9.76-2.432-17.856-11.456-15.36-22.112zM640 320h224v-32h-224v32z" />
<glyph unicode="&#xe631;" glyph-name="e-ss50-below-avg" d="M64 640h288v-32h-288v32zM672 640h256v-32h-256v32zM64 480h288v-32h-288v32zM672 480h256v-32h-256v32zM320 768h32v-640h-32v640zM96 288h448v-32h-448v32zM384 538.496v-49.088l73.28-80.896 19.2-24.544 99.52 105.696v48.672l-4.416 0.224-91.584-88.16v253.6h-32v-253.6zM640 768h32v-352h-32v352zM576 384h32v-320h-32v320zM576 64h352v-32h-352v32zM896 352h32v-288h-32v288zM608 384h320v-32h-320v32zM896 768v-352h32v352zM96 768h-32v-672h480v32h-448zM64 800h864v-32h-864v32zM798.784 220.512c4.224-17.952 40.864-6.432 31.744 18.304-13.28 28.256-62.016 15.296-69.312-9.632-4.128 7.712-6.784 13.92-12.608 18.304-31.104 23.52-63.712-7.008-75.168-28.896-3.2-6.112-10.72-15.232-3.808-20.256 6.944-1.44 7.008 7.712 8.672 11.552 6.4 15.264 17.728 30.464 32.704 35.68 37.376 12.768 30.912-30.048 25.12-54.016-8.704-35.904-17.984-105.152-63.616-82.912 8.96 2.656 18.24 11.424 15.36 23.168-3.872 16.32-29.28 4.768-31.744-5.824-5.376-22.496 17.376-31.488 35.68-29.856 17.504 1.632 27.104 16.928 34.624 26.016 6.4-17.152 20.992-27.776 41.472-26.016 21.024 1.792 35.712 19.424 44.352 34.688 3.776 6.72 11.424 16.704 4.736 23.136-7.488 0.096-6.752-9.184-8.672-13.472-6.272-14.592-18.144-29.696-32.704-34.72-17.44-5.984-30.176 2.976-30.816 20.224-0.736 16.48 7.36 38.24 13.44 61.728 8.864 34.4 17.056 71.872 55.904 54.912-9.76-2.432-17.856-11.456-15.36-22.112zM640 320h224v-32h-224v32z" />
<glyph unicode="&#xe632;" glyph-name="e-ss51-clear-rules" d="M2.116 891.733h887.467v-68.267h-887.467v68.267zM2.116 686.933h887.467v-68.267h-887.467v68.267zM2.116 482.133h614.4v-68.267h-614.4v68.267zM70.383 277.333h341.333v-68.267h-341.333v68.267zM2.116 72.533h546.133v-68.267h-546.133v68.267zM2.116 891.733h68.267v-887.467h-68.267v887.467zM821.316 891.733h68.267v-273.067h-68.267v273.067zM206.916 891.733h68.267v-819.2h-68.267v819.2zM411.716 891.733h68.267v-887.467h-68.267v887.467zM616.516 891.733h68.267v-409.6h-68.267v409.6zM591.568 314.795l202.509-202.681-86.298-86.224-202.509 202.681 86.298 86.224zM848.783 572.115l202.643-202.643-225.234-225.234-202.643 202.643 225.234 225.234z" />
<glyph unicode="&#xe633;" glyph-name="e-ss52-format-as-tables" d="M585.6 236.8l67.2-54.4 147.2 128-121.6 96c-38.4-35.2-92.8-169.6-92.8-169.6zM886.4 678.4c-41.6-48-140.8-176-188.8-240l131.2-105.6c0 0 121.6 140.8 195.2 240l-137.6 105.6zM518.4 208c-44.8 0-76.8-41.6-80-44.8-35.2-57.6-105.6-134.4-105.6-134.4l-19.2-19.2 192 22.4 51.2 41.6c19.2 12.8 32 28.8 35.2 48 6.4 28.8-12.8 54.4-12.8 57.6-19.2 19.2-38.4 28.8-60.8 28.8zM572.8 124.8c-3.2-12.8-12.8-25.6-25.6-35.2-6.4 6.4-41.6 54.4-118.4 22.4 9.6 12.8 19.2 28.8 28.8 41.6 0 0 28.8 35.2 64 35.2 16 0 32-6.4 44.8-19.2-3.2-3.2 9.6-22.4 6.4-44.8zM640 928h-640v-665.6h512v25.6h32v64h32v32h32v64h32v32h32v448h-32zM480 896v-128h-128v128h128zM320 896v-128h-128v128h128zM32 896h128v-128h-128v128zM32 736h128v-128h-128v128zM32 576h128v-128h-128v128zM32 288v128h128v-128h-128zM640 768h-128v128h128v-128z" />
<glyph unicode="&#xe634;" glyph-name="e-ss53-cell-styles" d="M588.8 217.6l67.2-51.2 144 124.8-121.6 92.8c-35.2-35.2-89.6-166.4-89.6-166.4zM886.4 649.6c-41.6-48-137.6-169.6-182.4-233.6l128-102.4c0 0 118.4 137.6 188.8 233.6l-134.4 102.4zM576 188.8c-44.8 0-76.8-41.6-76.8-44.8-35.2-57.6-102.4-131.2-105.6-131.2l-19.2-19.2 188.8 22.4 48 38.4c19.2 12.8 32 28.8 35.2 48 6.4 28.8-12.8 54.4-12.8 57.6-19.2 19.2-38.4 28.8-57.6 28.8zM627.2 108.8c-3.2-12.8-9.6-25.6-25.6-35.2-3.2 6.4-41.6 54.4-115.2 19.2 9.6 12.8 19.2 28.8 28.8 41.6 0 0 28.8 35.2 60.8 35.2 16 0 28.8-6.4 41.6-19.2 0 0 12.8-19.2 9.6-41.6zM576 288v32h-64v160h160v32h-160v160h160v-160h32v384h-704v-608h576zM512 864h160v-160h-160v160zM192 320h-160v160h160v-160zM192 512h-160v160h160v-160zM192 704h-160v160h160v-160zM480 320h-256v160h256v-160zM480 704h-256v160h256v-160z" />
<glyph unicode="&#xe635;" glyph-name="e-ss54-sort-and-filter" d="M155.344 818l-107.594-320h63.25l28.875 96h106.562l30.344-96h65.75l-109.063 320h-78.125zM149.875 626l25.844 89.938c6 19.969 10.937 38.062 15.969 70.062h0.969c4.969-32 10.438-49.594 16.938-70.062l26.375-89.938h-86.094zM32 370h182.75l-182.75-229.656v-58.344h256v64h-165.125l165.125 260.188v27.812h-256zM941.719 732.75l-462.062 4.156c-59.531 0.5-84.25-28.938-54.781-65.531l60.719-75.25c29.375-36.562 65.688-96.5 95.156-133.062l27.25-48.656v-236.875c0-16.781 37.531-31.531 54.281-31.531h96.125c16.812 0 9.594 14.75 9.594 31.531v241.656l45.344 41.781c30.125 36.094 84.594 95.062 114.688 131.062l64.531 74.344c30.25 35.969 8.719 65.844-50.844 66.375zM704 178h-64v248.844l-159.188 241.75 36.312 26.312 186.875-253.469v-263.438z" />
<glyph unicode="&#xe636;" glyph-name="e-ss55-sort-d" d="M230.605 618.667l-36.523-136.533h-80.213l136.465 409.6h99.123l138.308-409.6h-83.422l-38.571 136.533h-135.168zM352.666 652.8l-33.587 72.363c-8.192 25.941-15.223 47.104-21.436 47.104h-1.297c-6.349 0-12.629-21.845-20.139-47.104l-32.905-72.363h109.363zM964.608 195.55l-78.438 71.748-133.12-137.421v761.856h-68.267v-762.197l-105.335 137.762-54.955-71.748 219.682-259.55 1.638 0.41 0.887-0.41zM138.65-10.138l136.533 316.416v-28.945h-136.533v68.267h273.067v-18.5l-204.8-313.207v58.641h204.8v-136.533h-273.067v53.862z" />
<glyph unicode="&#xe637;" glyph-name="e-ss57-filter-d" d="M817.278 797.611l-575.556 5.167c-74.167 0.611-104.944-36.056-68.222-81.667l75.611-93.722c36.611-45.5 81.833-120.167 118.556-165.722l33.889-60.611v-295.056c0-20.889 46.778-39.278 67.611-39.278h119.778c20.944 0 11.944 18.389 11.944 39.278v301l56.444 52.056c37.556 44.944 105.389 118.389 142.889 163.278l80.389 92.556c37.667 44.833 10.833 82.056-63.333 82.722z" />
<glyph unicode="&#xe638;" glyph-name="e-ss59-find-and-select" d="M928 416v160h-64v192h-96v128h-128v-128h-96v-192h-64v192h-96v128h-128v-128h-96v-192h-64v-160h-64v-384h384v352h192v-352h384v384h-64zM96 64h-32v320h32v-320zM160 416h-32v128h32v-128zM224 576h-32v160h32v-160zM320 768h-32v96h32v-96zM576 448h-128v32h128v-32zM736 768h-32v96h32v-96zM832 576h-32v160h32v-160zM864 416v128h32v-128h-32zM960 64h-32v320h32v-320z" />
<glyph unicode="&#xe639;" glyph-name="e-ss61-replace" d="M479.983 345.6h204.8v-68.267h-204.8v68.267zM616.516 345.6h68.267v-341.333h-68.267v341.333zM409.6 209.067h68.267v-136.533h-68.267v136.533zM479.983 72.533h204.8v-68.267h-204.8v68.267zM411.716 209.067h273.067v-68.267h-273.067v68.267zM138.65 823.467h204.8v-68.267h-204.8v68.267zM275.183 823.467h68.267v-341.333h-68.267v341.333zM68.267 686.933h68.267v-136.533h-68.267v136.533zM138.65 550.4h204.8v-68.267h-204.8v68.267zM70.383 686.933h273.067v-68.267h-273.067v68.267zM819.2 345.6h136.533v-68.267h-136.533v68.267zM955.733 345.6h68.267v-136.533h-68.267v136.533zM753.050 277.333h68.267v-204.8h-68.267v204.8zM819.2 277.333h68.267v-68.267h-68.267v68.267zM819.2 140.8h68.267v-68.267h-68.267v68.267zM821.316 72.533h204.8v-68.267h-204.8v68.267zM955.733 140.8h68.267v-68.267h-68.267v68.267zM411.716 891.733h68.267v-409.6h-68.267v409.6zM477.867 755.2h136.533v-68.267h-136.533v68.267zM614.4 686.933h68.267v-136.533h-68.267v136.533zM477.867 550.4h136.533v-68.267h-136.533v68.267zM0 345.6h68.267v-136.533h-68.267v136.533zM68.267 277.333h136.533v-68.267h-136.533v68.267zM206.916 345.6h68.267v-204.8h-68.267v204.8zM273.067 277.333h68.267v-68.267h-68.267v68.267z" />
<glyph unicode="&#xe63a;" glyph-name="e-ss63-clear" d="M475.136 32.256h532.48v-40.96h-532.48v40.96zM425.984 163.328l-131.072-131.072c-2.048-2.048-4.096-2.048-6.144 0l-272.384 268.288c-2.048 2.048-2.048 4.096 0 6.144l131.072 131.072c2.048 2.048 4.096 2.048 6.144 0l270.336-270.336c4.096 0 4.096-2.048 2.048-4.096zM890.88 626.176l-411.648-411.648c-2.048-2.048-4.096-2.048-6.144 0l-270.336 272.384c-2.048 2.048-2.048 4.096 0 6.144l409.6 411.648c2.048 2.048 4.096 2.048 6.144 0l272.384-272.384c2.048-2.048 2.048-4.096 0-6.144z" />
<glyph unicode="&#xe63b;" glyph-name="e-ss64-clear-d" d="M527.77 238.217l-289.655 287.949-123.358-122.47 289.724-288.017zM895.795 603.921l-289.792 288.085-322.014-320.102 289.792-287.949zM343.45 4.267h614.4v-68.267h-614.4v68.267z" />
<glyph unicode="&#xe63c;" glyph-name="e-ss65-clearformat" d="M0 384h512v-64h-512v64zM0 320h448v-64h-448v64zM0 256h384v-64h-384v64zM0 192h320v-64h-320v64zM834.8 577.661l176.724-157.614-319.488-358.224-176.724 157.614 319.488 358.224zM416.966 204.295l230.797-230.797-45.254-45.254-230.797 230.797 45.254 45.254zM357.972 978.514l52.070-37.21-320.003-447.805-52.070 37.21 320.003 447.805zM96 896c19.2 0 32-12.8 32-32s-12.8-32-32-32-32 12.8-32 32 12.8 32 32 32zM96 960c-51.2 0-96-44.8-96-96s44.8-96 96-96 96 44.8 96 96-44.8 96-96 96v0zM352 640c19.2 0 32-12.8 32-32s-12.8-32-32-32-32 12.8-32 32 12.8 32 32 32zM352 704c-51.2 0-96-44.8-96-96s44.8-96 96-96 96 44.8 96 96-44.8 96-96 96v0z" />
<glyph unicode="&#xe63d;" glyph-name="e-ss66-bottom-border" d="M70.383 72.533h68.267v-68.267h-68.267v68.267zM70.383 209.067h68.267v-68.267h-68.267v68.267zM70.383 345.6h68.267v-68.267h-68.267v68.267zM70.383 482.133h68.267v-68.267h-68.267v68.267zM206.916 482.133h68.267v-68.267h-68.267v68.267zM343.45 482.133h68.267v-68.267h-68.267v68.267zM616.516 482.133h68.267v-68.267h-68.267v68.267zM753.050 482.133h68.267v-68.267h-68.267v68.267zM70.383 618.667h68.267v-68.267h-68.267v68.267zM70.383 755.2h68.267v-68.267h-68.267v68.267zM70.383 891.733h68.267v-68.267h-68.267v68.267zM889.583 72.533h68.267v-68.267h-68.267v68.267zM889.583 209.067h68.267v-68.267h-68.267v68.267zM889.583 345.6h68.267v-68.267h-68.267v68.267zM889.583 482.133h68.267v-68.267h-68.267v68.267zM889.583 618.667h68.267v-68.267h-68.267v68.267zM889.583 755.2h68.267v-68.267h-68.267v68.267zM889.583 891.733h68.267v-68.267h-68.267v68.267zM206.916 891.733h68.267v-68.267h-68.267v68.267zM343.45 891.733h68.267v-68.267h-68.267v68.267zM616.516 891.733h68.267v-68.267h-68.267v68.267zM753.050 891.733h68.267v-68.267h-68.267v68.267zM206.916 72.533h68.267v-68.267h-68.267v68.267zM343.45 72.533h68.267v-68.267h-68.267v68.267zM479.983 72.533h68.267v-68.267h-68.267v68.267zM479.983 209.067h68.267v-68.267h-68.267v68.267zM479.983 345.6h68.267v-68.267h-68.267v68.267zM479.983 482.133h68.267v-68.267h-68.267v68.267zM479.983 618.667h68.267v-68.267h-68.267v68.267zM479.983 755.2h68.267v-68.267h-68.267v68.267zM479.983 891.733h68.267v-68.267h-68.267v68.267zM616.516 72.533h68.267v-68.267h-68.267v68.267zM753.050 72.533h68.267v-68.267h-68.267v68.267zM70.383 72.533h887.467v-68.267h-887.467v68.267z" />
<glyph unicode="&#xe63e;" glyph-name="e-ss67-border-top" d="M70.383 891.733h68.267v-68.267h-68.267v68.267zM70.383 755.2h68.267v-68.267h-68.267v68.267zM70.383 618.667h68.267v-68.267h-68.267v68.267zM70.383 482.133h68.267v-68.267h-68.267v68.267zM206.916 482.133h68.267v-68.267h-68.267v68.267zM343.45 482.133h68.267v-68.267h-68.267v68.267zM616.516 482.133h68.267v-68.267h-68.267v68.267zM753.050 482.133h68.267v-68.267h-68.267v68.267zM70.383 345.6h68.267v-68.267h-68.267v68.267zM70.383 209.067h68.267v-68.267h-68.267v68.267zM70.383 72.533h68.267v-68.267h-68.267v68.267zM889.583 891.733h68.267v-68.267h-68.267v68.267zM889.583 755.2h68.267v-68.267h-68.267v68.267zM889.583 618.667h68.267v-68.267h-68.267v68.267zM889.583 482.133h68.267v-68.267h-68.267v68.267zM889.583 345.6h68.267v-68.267h-68.267v68.267zM889.583 209.067h68.267v-68.267h-68.267v68.267zM889.583 72.533h68.267v-68.267h-68.267v68.267zM206.916 72.533h68.267v-68.267h-68.267v68.267zM343.45 72.533h68.267v-68.267h-68.267v68.267zM616.516 72.533h68.267v-68.267h-68.267v68.267zM753.050 72.533h68.267v-68.267h-68.267v68.267zM206.916 891.733h68.267v-68.267h-68.267v68.267zM343.45 891.733h68.267v-68.267h-68.267v68.267zM479.983 891.733h68.267v-68.267h-68.267v68.267zM479.983 755.2h68.267v-68.267h-68.267v68.267zM479.983 618.667h68.267v-68.267h-68.267v68.267zM479.983 482.133h68.267v-68.267h-68.267v68.267zM479.983 345.6h68.267v-68.267h-68.267v68.267zM479.983 209.067h68.267v-68.267h-68.267v68.267zM479.983 72.533h68.267v-68.267h-68.267v68.267zM616.516 891.733h68.267v-68.267h-68.267v68.267zM753.050 891.733h68.267v-68.267h-68.267v68.267zM70.383 891.733h887.467v-68.267h-887.467v68.267z" />
<glyph unicode="&#xe63f;" glyph-name="e-ss68-border-left" d="M70.383 72.533h68.267v-68.267h-68.267v68.267zM206.916 72.533h68.267v-68.267h-68.267v68.267zM343.45 72.533h68.267v-68.267h-68.267v68.267zM479.983 72.533h68.267v-68.267h-68.267v68.267zM479.983 209.067h68.267v-68.267h-68.267v68.267zM479.983 345.6h68.267v-68.267h-68.267v68.267zM479.983 618.667h68.267v-68.267h-68.267v68.267zM479.983 755.2h68.267v-68.267h-68.267v68.267zM616.516 72.533h68.267v-68.267h-68.267v68.267zM753.050 72.533h68.267v-68.267h-68.267v68.267zM889.583 72.533h68.267v-68.267h-68.267v68.267zM70.383 891.733h68.267v-68.267h-68.267v68.267zM206.916 891.733h68.267v-68.267h-68.267v68.267zM343.45 891.733h68.267v-68.267h-68.267v68.267zM479.983 891.733h68.267v-68.267h-68.267v68.267zM616.516 891.733h68.267v-68.267h-68.267v68.267zM753.050 891.733h68.267v-68.267h-68.267v68.267zM889.583 891.733h68.267v-68.267h-68.267v68.267zM889.583 209.067h68.267v-68.267h-68.267v68.267zM889.583 345.6h68.267v-68.267h-68.267v68.267zM889.583 618.667h68.267v-68.267h-68.267v68.267zM889.583 755.2h68.267v-68.267h-68.267v68.267zM70.383 209.067h68.267v-68.267h-68.267v68.267zM70.383 345.6h68.267v-68.267h-68.267v68.267zM70.383 482.133h68.267v-68.267h-68.267v68.267zM206.916 482.133h68.267v-68.267h-68.267v68.267zM343.45 482.133h68.267v-68.267h-68.267v68.267zM479.983 482.133h68.267v-68.267h-68.267v68.267zM616.516 482.133h68.267v-68.267h-68.267v68.267zM753.050 482.133h68.267v-68.267h-68.267v68.267zM889.583 482.133h68.267v-68.267h-68.267v68.267zM70.383 618.667h68.267v-68.267h-68.267v68.267zM70.383 755.2h68.267v-68.267h-68.267v68.267zM70.383 891.733h68.267v-887.467h-68.267v887.467z" />
<glyph unicode="&#xe640;" glyph-name="e-ss69-border-right" d="M889.583 72.533h68.267v-68.267h-68.267v68.267zM753.050 72.533h68.267v-68.267h-68.267v68.267zM616.516 72.533h68.267v-68.267h-68.267v68.267zM479.983 72.533h68.267v-68.267h-68.267v68.267zM479.983 209.067h68.267v-68.267h-68.267v68.267zM479.983 345.6h68.267v-68.267h-68.267v68.267zM479.983 618.667h68.267v-68.267h-68.267v68.267zM479.983 755.2h68.267v-68.267h-68.267v68.267zM343.45 72.533h68.267v-68.267h-68.267v68.267zM206.916 72.533h68.267v-68.267h-68.267v68.267zM70.383 72.533h68.267v-68.267h-68.267v68.267zM889.583 891.733h68.267v-68.267h-68.267v68.267zM753.050 891.733h68.267v-68.267h-68.267v68.267zM616.516 891.733h68.267v-68.267h-68.267v68.267zM479.983 891.733h68.267v-68.267h-68.267v68.267zM343.45 891.733h68.267v-68.267h-68.267v68.267zM206.916 891.733h68.267v-68.267h-68.267v68.267zM70.383 891.733h68.267v-68.267h-68.267v68.267zM70.383 209.067h68.267v-68.267h-68.267v68.267zM70.383 345.6h68.267v-68.267h-68.267v68.267zM70.383 618.667h68.267v-68.267h-68.267v68.267zM70.383 755.2h68.267v-68.267h-68.267v68.267zM889.583 209.067h68.267v-68.267h-68.267v68.267zM889.583 345.6h68.267v-68.267h-68.267v68.267zM889.583 482.133h68.267v-68.267h-68.267v68.267zM753.050 482.133h68.267v-68.267h-68.267v68.267zM616.516 482.133h68.267v-68.267h-68.267v68.267zM479.983 482.133h68.267v-68.267h-68.267v68.267zM343.45 482.133h68.267v-68.267h-68.267v68.267zM206.916 482.133h68.267v-68.267h-68.267v68.267zM70.383 482.133h68.267v-68.267h-68.267v68.267zM889.583 618.667h68.267v-68.267h-68.267v68.267zM889.583 755.2h68.267v-68.267h-68.267v68.267zM889.583 891.733h68.267v-887.467h-68.267v887.467z" />
<glyph unicode="&#xe641;" glyph-name="e-ss70-no-border" d="M889.583 72.533h68.267v-68.267h-68.267v68.267zM753.050 72.533h68.267v-68.267h-68.267v68.267zM616.516 72.533h68.267v-68.267h-68.267v68.267zM479.983 72.533h68.267v-68.267h-68.267v68.267zM479.983 209.067h68.267v-68.267h-68.267v68.267zM479.983 345.6h68.267v-68.267h-68.267v68.267zM479.983 618.667h68.267v-68.267h-68.267v68.267zM479.983 755.2h68.267v-68.267h-68.267v68.267zM343.45 72.533h68.267v-68.267h-68.267v68.267zM206.916 72.533h68.267v-68.267h-68.267v68.267zM70.383 72.533h68.267v-68.267h-68.267v68.267zM889.583 891.733h68.267v-68.267h-68.267v68.267zM753.050 891.733h68.267v-68.267h-68.267v68.267zM616.516 891.733h68.267v-68.267h-68.267v68.267zM479.983 891.733h68.267v-68.267h-68.267v68.267zM343.45 891.733h68.267v-68.267h-68.267v68.267zM206.916 891.733h68.267v-68.267h-68.267v68.267zM70.383 891.733h68.267v-68.267h-68.267v68.267zM70.383 209.067h68.267v-68.267h-68.267v68.267zM70.383 345.6h68.267v-68.267h-68.267v68.267zM70.383 618.667h68.267v-68.267h-68.267v68.267zM70.383 755.2h68.267v-68.267h-68.267v68.267zM889.583 209.067h68.267v-68.267h-68.267v68.267zM889.583 345.6h68.267v-68.267h-68.267v68.267zM889.583 482.133h68.267v-68.267h-68.267v68.267zM753.050 482.133h68.267v-68.267h-68.267v68.267zM616.516 482.133h68.267v-68.267h-68.267v68.267zM479.983 482.133h68.267v-68.267h-68.267v68.267zM343.45 482.133h68.267v-68.267h-68.267v68.267zM206.916 482.133h68.267v-68.267h-68.267v68.267zM70.383 482.133h68.267v-68.267h-68.267v68.267zM889.583 618.667h68.267v-68.267h-68.267v68.267zM889.583 755.2h68.267v-68.267h-68.267v68.267z" />
<glyph unicode="&#xe642;" glyph-name="e-ss71-all-borders" d="M889.583 72.533h68.267v-68.267h-68.267v68.267zM753.050 72.533h68.267v-68.267h-68.267v68.267zM616.516 72.533h68.267v-68.267h-68.267v68.267zM479.983 72.533h68.267v-68.267h-68.267v68.267zM479.983 209.067h68.267v-68.267h-68.267v68.267zM479.983 345.6h68.267v-68.267h-68.267v68.267zM479.983 618.667h68.267v-68.267h-68.267v68.267zM479.983 755.2h68.267v-68.267h-68.267v68.267zM343.45 72.533h68.267v-68.267h-68.267v68.267zM206.916 72.533h68.267v-68.267h-68.267v68.267zM70.383 72.533h68.267v-68.267h-68.267v68.267zM889.583 891.733h68.267v-68.267h-68.267v68.267zM753.050 891.733h68.267v-68.267h-68.267v68.267zM616.516 891.733h68.267v-68.267h-68.267v68.267zM479.983 891.733h68.267v-68.267h-68.267v68.267zM343.45 891.733h68.267v-68.267h-68.267v68.267zM206.916 891.733h68.267v-68.267h-68.267v68.267zM70.383 891.733h68.267v-68.267h-68.267v68.267zM70.383 209.067h68.267v-68.267h-68.267v68.267zM70.383 345.6h68.267v-68.267h-68.267v68.267zM70.383 618.667h68.267v-68.267h-68.267v68.267zM70.383 755.2h68.267v-68.267h-68.267v68.267zM889.583 209.067h68.267v-68.267h-68.267v68.267zM889.583 345.6h68.267v-68.267h-68.267v68.267zM889.583 482.133h68.267v-68.267h-68.267v68.267zM753.050 482.133h68.267v-68.267h-68.267v68.267zM616.516 482.133h68.267v-68.267h-68.267v68.267zM479.983 482.133h68.267v-68.267h-68.267v68.267zM343.45 482.133h68.267v-68.267h-68.267v68.267zM206.916 482.133h68.267v-68.267h-68.267v68.267zM70.383 482.133h68.267v-68.267h-68.267v68.267zM889.583 618.667h68.267v-68.267h-68.267v68.267zM889.583 755.2h68.267v-68.267h-68.267v68.267zM70.383 891.733h887.467v-68.267h-887.467v68.267zM70.383 482.133h887.467v-68.267h-887.467v68.267zM889.583 891.733h68.267v-887.467h-68.267v887.467zM70.383 72.533h887.467v-68.267h-887.467v68.267zM70.383 891.733h68.267v-887.467h-68.267v887.467zM479.983 891.733h68.267v-887.467h-68.267v887.467z" />
<glyph unicode="&#xe643;" glyph-name="e-ss72-outside-borders" d="M889.583 72.533h68.267v-68.267h-68.267v68.267zM753.050 72.533h68.267v-68.267h-68.267v68.267zM616.516 72.533h68.267v-68.267h-68.267v68.267zM479.983 72.533h68.267v-68.267h-68.267v68.267zM479.983 209.067h68.267v-68.267h-68.267v68.267zM479.983 345.6h68.267v-68.267h-68.267v68.267zM479.983 618.667h68.267v-68.267h-68.267v68.267zM479.983 755.2h68.267v-68.267h-68.267v68.267zM343.45 72.533h68.267v-68.267h-68.267v68.267zM206.916 72.533h68.267v-68.267h-68.267v68.267zM70.383 72.533h68.267v-68.267h-68.267v68.267zM889.583 891.733h68.267v-68.267h-68.267v68.267zM753.050 891.733h68.267v-68.267h-68.267v68.267zM616.516 891.733h68.267v-68.267h-68.267v68.267zM479.983 891.733h68.267v-68.267h-68.267v68.267zM343.45 891.733h68.267v-68.267h-68.267v68.267zM206.916 891.733h68.267v-68.267h-68.267v68.267zM70.383 891.733h68.267v-68.267h-68.267v68.267zM70.383 209.067h68.267v-68.267h-68.267v68.267zM70.383 345.6h68.267v-68.267h-68.267v68.267zM70.383 618.667h68.267v-68.267h-68.267v68.267zM70.383 755.2h68.267v-68.267h-68.267v68.267zM889.583 209.067h68.267v-68.267h-68.267v68.267zM889.583 345.6h68.267v-68.267h-68.267v68.267zM889.583 482.133h68.267v-68.267h-68.267v68.267zM753.050 482.133h68.267v-68.267h-68.267v68.267zM616.516 482.133h68.267v-68.267h-68.267v68.267zM479.983 482.133h68.267v-68.267h-68.267v68.267zM343.45 482.133h68.267v-68.267h-68.267v68.267zM206.916 482.133h68.267v-68.267h-68.267v68.267zM70.383 482.133h68.267v-68.267h-68.267v68.267zM889.583 618.667h68.267v-68.267h-68.267v68.267zM889.583 755.2h68.267v-68.267h-68.267v68.267zM70.383 891.733h887.467v-68.267h-887.467v68.267zM889.583 891.733h68.267v-887.467h-68.267v887.467zM70.383 72.533h887.467v-68.267h-887.467v68.267zM70.383 891.733h68.267v-887.467h-68.267v887.467z" />
<glyph unicode="&#xe644;" glyph-name="e-ss73-thickboxborder" d="M477.867 482.133h68.267v-68.267h-68.267v68.267zM614.4 482.133h68.267v-68.267h-68.267v68.267zM750.933 482.133h68.267v-68.267h-68.267v68.267zM341.333 482.133h68.267v-68.267h-68.267v68.267zM204.8 482.133h68.267v-68.267h-68.267v68.267zM477.867 345.6h68.267v-68.267h-68.267v68.267zM477.867 209.067h68.267v-68.267h-68.267v68.267zM477.867 618.667h68.267v-68.267h-68.267v68.267zM477.867 755.2h68.267v-68.267h-68.267v68.267zM955.733 960h-955.733v-1024h1024v1024h-68.267zM887.467 823.467v-750.933h-750.933v750.933h750.933z" />
<glyph unicode="&#xe645;" glyph-name="e-ss74-thickbottomborder" horiz-adv-x="951" d="M0 960h73.143v-73.143h-73.143v73.143zM0 813.714h73.143v-73.143h-73.143v73.143zM0 667.429h73.143v-73.143h-73.143v73.143zM0 521.143h73.143v-73.143h-73.143v73.143zM146.286 521.143h73.143v-73.143h-73.143v73.143zM292.571 521.143h73.143v-73.143h-73.143v73.143zM585.143 521.143h73.143v-73.143h-73.143v73.143zM731.429 521.143h73.143v-73.143h-73.143v73.143zM0 374.857h73.143v-73.143h-73.143v73.143zM0 228.571h73.143v-73.143h-73.143v73.143zM0 82.286v-146.286h950.857v146.286h-73.143zM146.286 960h73.143v-73.143h-73.143v73.143zM292.571 960h73.143v-73.143h-73.143v73.143zM438.857 960h73.143v-73.143h-73.143v73.143zM438.857 813.714h73.143v-73.143h-73.143v73.143zM438.857 667.429h73.143v-73.143h-73.143v73.143zM438.857 521.143h73.143v-73.143h-73.143v73.143zM438.857 374.857h73.143v-73.143h-73.143v73.143zM438.857 228.571h73.143v-73.143h-73.143v73.143zM585.143 960h73.143v-73.143h-73.143v73.143zM731.429 960h73.143v-73.143h-73.143v73.143zM877.714 960h73.143v-73.143h-73.143v73.143zM877.714 813.714h73.143v-73.143h-73.143v73.143zM877.714 667.429h73.143v-73.143h-73.143v73.143zM877.714 521.143h73.143v-73.143h-73.143v73.143zM877.714 374.857h73.143v-73.143h-73.143v73.143zM877.714 228.571h73.143v-73.143h-73.143v73.143z" />
<glyph unicode="&#xe646;" glyph-name="e-ss75-topbottomBorder" horiz-adv-x="887" d="M0 960v-136.533h887.467v136.533zM0 4.267v-68.267h887.467v136.533h-887.467zM0 755.2h68.267v-68.267h-68.267v68.267zM0 618.667h68.267v-68.267h-68.267v68.267zM0 482.133h68.267v-68.267h-68.267v68.267zM136.533 482.133h68.267v-68.267h-68.267v68.267zM273.067 482.133h68.267v-68.267h-68.267v68.267zM546.133 482.133h68.267v-68.267h-68.267v68.267zM682.667 482.133h68.267v-68.267h-68.267v68.267zM0 345.6h68.267v-68.267h-68.267v68.267zM0 209.067h68.267v-68.267h-68.267v68.267zM409.6 755.2h68.267v-68.267h-68.267v68.267zM409.6 618.667h68.267v-68.267h-68.267v68.267zM409.6 482.133h68.267v-68.267h-68.267v68.267zM409.6 345.6h68.267v-68.267h-68.267v68.267zM409.6 209.067h68.267v-68.267h-68.267v68.267zM819.2 755.2h68.267v-68.267h-68.267v68.267zM819.2 618.667h68.267v-68.267h-68.267v68.267zM819.2 482.133h68.267v-68.267h-68.267v68.267zM819.2 345.6h68.267v-68.267h-68.267v68.267zM819.2 209.067h68.267v-68.267h-68.267v68.267z" />
<glyph unicode="&#xe647;" glyph-name="e-ss76-topThickbottomBorder" horiz-adv-x="951" d="M0 960h950.857v-73.143h-950.857v73.143zM0 9.143v-73.143h950.857v146.286h-950.857zM0 813.714h73.143v-73.143h-73.143v73.143zM0 667.429h73.143v-73.143h-73.143v73.143zM0 521.143h73.143v-73.143h-73.143v73.143zM146.286 521.143h73.143v-73.143h-73.143v73.143zM292.571 521.143h73.143v-73.143h-73.143v73.143zM585.143 521.143h73.143v-73.143h-73.143v73.143zM731.429 521.143h73.143v-73.143h-73.143v73.143zM0 374.857h73.143v-73.143h-73.143v73.143zM0 228.571h73.143v-73.143h-73.143v73.143zM438.857 813.714h73.143v-73.143h-73.143v73.143zM438.857 667.429h73.143v-73.143h-73.143v73.143zM438.857 521.143h73.143v-73.143h-73.143v73.143zM438.857 374.857h73.143v-73.143h-73.143v73.143zM438.857 228.571h73.143v-73.143h-73.143v73.143zM877.714 813.714h73.143v-73.143h-73.143v73.143zM877.714 667.429h73.143v-73.143h-73.143v73.143zM877.714 521.143h73.143v-73.143h-73.143v73.143zM877.714 374.857h73.143v-73.143h-73.143v73.143zM877.714 228.571h73.143v-73.143h-73.143v73.143z" />
<glyph unicode="&#xe648;" glyph-name="e-ss77-Drawborder" d="M819.2 4.267h-204.8v204.8h-68.267v-204.8h-273.067v614.4h204.8v68.267h68.267v68.267h68.267v68.267h-614.4v-887.467h887.467v614.4h-68.267v-546.133zM68.267 618.667h136.533v-273.067h-136.533v273.067zM68.267 4.267v273.067h136.533v-273.067h-136.533zM614.4 618.667h-68.267v-68.267h-68.267v-68.267h68.267v-68.267h68.267v68.267h68.267v68.267h68.267v68.267h68.267v136.533h-136.533v-68.267h-68.267zM1024 891.733h-68.267v68.267h-68.267v-68.267h-68.267v-68.267h68.267v-68.267h68.267v68.267h68.267zM477.867 482.133h-68.267v-136.533h136.533v68.267h-68.267zM341.333 345.6h68.267v-68.267h-68.267v68.267z" />
<glyph unicode="&#xe649;" glyph-name="e-ss78-DrawborderGrid" d="M68.267 482.133h341.333v-204.8h68.267v204.8h204.8v68.267h-204.8v341.333h341.333v-204.8h68.267v273.067h-887.467v-887.467h273.067v68.267h-204.8v341.333zM68.267 891.733h341.333v-341.333h-341.333v341.333zM682.667 413.867v-68.267h-68.267v-68.267h-68.267v-68.267h-68.267v-68.267h68.267v-68.267h68.267v68.267h68.267v68.267h68.267v68.267h68.267v136.533h-68.267zM1024 550.4h-68.267v68.267h-68.267v-68.267h-68.267v-68.267h68.267v-68.267h68.267v68.267h68.267zM477.867 140.8h-68.267v-136.533h136.533v68.267h-68.267zM341.333 4.267h68.267v-68.267h-68.267v68.267z" />
<glyph unicode="&#xe64a;" glyph-name="e-ss79-eraseBorder" d="M409.6 140.8v68.267h-68.267v68.267h-68.267v68.267h-68.267v68.267h-136.533v-68.267h68.267v-68.267h68.267v-68.267h68.267v-68.267h68.267v-68.267h614.4v68.267zM273.067 413.867h68.267v-68.267h68.267v-68.267h68.267v68.267h68.267v68.267h68.267v68.267h68.267v68.267h68.267v68.267h68.267v136.533h-68.267v68.267h-68.267v68.267h-136.533v-68.267h-68.267v-68.267h-68.267v-68.267h-68.267v-68.267h-68.267v-68.267h-68.267v-68.267h68.267z" />
<glyph unicode="&#xe64b;" glyph-name="e-ss80-linecolour" d="M682.667 686.933v-68.267h-68.267v-68.267h-68.267v-68.267h-68.267v-68.267h68.267v-68.267h68.267v68.267h68.267v68.267h68.267v68.267h68.267v136.533h-68.267zM955.733 823.467v68.267h-68.267v-68.267h-68.267v-68.267h68.267v-68.267h68.267v68.267h68.267v68.267zM477.867 413.867h-68.267v-136.533h136.533v68.267h-68.267zM341.333 277.333h68.267v-68.267h-68.267v68.267zM273.067 209.067v68.267h-204.8v614.4h682.667v68.267h-750.933v-750.933h68.267zM0 140.8h1024v-204.8h-1024v204.8z" />
<glyph unicode="&#xe64c;" glyph-name="e-ss81-pivot-table" d="M128 832h64v-64h-64v64zM256 832h608v-64h-608v64zM128 704h64v-608h-64v608zM960 0h-896v896h896v-896zM96 32h832v832h-832v-832zM704 672h160v-32h-160v32zM736 704h96v-32h-96v32zM864 640h32v-32h-32v32zM768 736h32v-32h-32v32zM672 640h32v-32h-32v32zM320 288h32v-32h-32v32zM320 96h32v-32h-32v32zM224 192h32v-32h-32v32zM288 256h32v-160h-32v160zM256 224h32v-96h-32v96zM342.208 145.312l-0.416 64 369.984 2.368c19.296-0.448 17.824 5.856 20 7.936 10.080 9.76 4.224 28.032 4.224 32.032v356.352h64v-356.32c0-4.8 7.168-48.128-23.68-78.016-12.896-12.48-31.712-27.36-69.376-25.952l-364.736-2.4z" />
<glyph unicode="&#xe64d;" glyph-name="e-ss82-table" d="M928 896h-864v-896h896v896h-32zM832 864v-32h-32v-32h-32v32h-32v32h96zM640 672h-256v96h256v-96zM384 288v96h256v-96h-256zM640 256v-96h-256v96h256zM384 416v96h256v-96h-256zM384 544v96h256v-96h-256zM544 864v-32h-32v-32h-32v32h-32v32h96zM256 864v-32h-32v-32h-32v32h-32v32h96zM96 768h256v-96h-256v96zM96 640h256v-96h-256v96zM96 512h256v-96h-256v96zM96 384h256v-96h-256v96zM96 256h256v-96h-256v96zM96 32v96h256v-96h-256zM384 32v96h256v-96h-256zM928 32h-256v96h256v-96zM928 160h-256v96h256v-96zM928 288h-256v96h256v-96zM928 416h-256v96h256v-96zM928 544h-256v96h256v-96zM928 672h-256v96h256v-96z" />
<glyph unicode="&#xe64e;" glyph-name="e-ss83-hyperlinks" d="M357.156 88.062c0 1.188-17.812 2.969-31.938 5.75l31.375 15.844c-34.938 56.812-55.859 113-71.281 167.688 70.703 19.062 139.078 19.625 199.234 15.75-1.281-4.312-1.562-16.875-2.875-16.875h31.688c1.062 0 2.375 6.844 3.312 10.219 21.953-2.5 42.766-10.219 62.391-10.219h107.375c-42.75 32-97.875 36.125-161.938 43.906 9.312 38.469 15.188 84.094 18.312 116.094h245.375c-4.375-64-21.062-96-46.375-160h34.813c27.562 64 43.438 120.562 43.438 186.109 0 68.375-20.188 137.922-49.938 194.672 3.156 1.672-3.5-0.406-0.438 1.234l-12.625 26.438c-0.312-0.188 6.25-0.125 1-2.938-72.437 116.375-201.125 194.359-348.031 194.359-137.688 0-266.531-65.594-333.859-172.797-7.469 4.422 12.141 0.828 4.672 5.625l-19.562-25.547c7.469-4.797-9.016-0.75-1.547-5.203-37.656-61.953-59.734-134.344-59.734-211.984 0-93.375 30.125-179.281 82.891-248.25-5.734-3.75 6.078 2.312 0.344-1.625l18.859-28.188c6.469 4.438-6.438-4.156 0 0 68.812-77.406 159.062-122.188 255.062-130.312v30.25zM494.047 326.969c-64.625 4.875-136.891 0.781-213.422-19.812-10.203 44.438-15.031 97.062-15.719 129.062h247.578c-3.25-32-9.125-71.812-18.438-109.25zM514.672 468.219h-249.562c1.344 32 6.922 84.203 15.219 122.531 52.594-11.453 103.219-16.969 150.594-16.969 28.312 0 55.281 2.547 81.094 5.406 3.438-35 4.594-78.969 2.656-110.969zM789.688 468.219h-244.812c1.938 32 0.625 78.328-3 114.547 92 13.922 163.812 42.359 204.25 61.047 27.687-52.687 43.562-111.594 43.562-175.594zM730.75 668.484c-38.562-17.703-106.25-43.688-192.375-56.781-14.562 106.297-46.734 187.922-65.547 228.5 108.484-18.156 201.297-82.234 257.922-171.719zM410.031 845.844c9.141 0 18.062-0.734 27.016-1.359 13.938-27.047 54.812-114.75 71.469-236.672-65.906-7.25-140.953-6.375-221.281 11.125 30.609 118.016 83.234 201.703 99.547 225.719 7.719 0.484 15.391 1.188 23.25 1.188zM347.984 840.312c-23.969-39.297-64.516-115.25-90.203-214.219-50.203 13.328-102.234 33.562-155.031 62.156 57.484 79.312 144.656 135.422 245.234 152.062zM85.844 663.797c56.203-30.719 111.531-51.422 164.969-65.516-8.797-40.469-14.734-98.062-16.125-130.062h-204.312c0 64 20.531 138.141 55.469 195.578zM31.922 436.219h202.547c0.688-32 5.844-90.375 16.906-137.812-45.938-14.75-93.219-35.469-141.125-64-44.016 56.75-72.312 137.812-78.328 201.812zM130.188 210.5c43.688 25.594 86.812 44.562 128.781 58.156 16.141-56.969 40.906-115.594 77.328-174.844-80.937 16.031-152.453 58.031-206.109 116.688zM592.312 101.719v30.375h-3.25c-8.812-4.75-17.938-8.938-27.125-13v-17.375h30.375zM581.188 84.219h-64.016v64h224.016v-32h64v64h-32v32h-32v32h-288.016v-32h-32.016v-32h-32v-128h32v-32h32.016v-32h192.016v32h-32v32h-32zM965.188 180.219v32h-32v32h-160v-32h32v-64h64v-64h-128v32h-128v-64h64v-64h224v32h64v32h32v128zM645.188 52.219h32v-32h-32v32zM901.188 20.219h32v-32h-32v32z" />
<glyph unicode="&#xe64f;" glyph-name="e-ss84-sort-a-to-z" d="M210.611 636.444l-34.833-113.778h-76.389l129.944 398.222h94.389l131.778-398.222h-79.444l-36.722 113.778h-128.722zM326.778 693.333l-31.944 68.889c-7.778 24.667-14.444 44.889-20.444 44.889h-1.222c-6.056 0-12-20.833-19.222-44.889l-31.278-68.889h104.111zM909.611 257.833l-58.944 68.333-111.111-130.889v725.611h-113.778v-725.889l-91.667 131.167-47.944-68.333 211.333-247.167 2.667 0.389 1.389-0.389zM113.778 61.944l170.667 301.333v-11.278h-170.667v56.889h284.444v-25.722l-227.556-298.278v39.556h227.556v-113.778h-284.444v51.278z" />
<glyph unicode="&#xe650;" glyph-name="e-ss85-sort-z-to-a" d="M210.611 124.444l-34.833-113.778h-76.389l129.944 398.222h94.389l131.778-398.222h-79.444l-36.722 113.778h-128.722zM326.778 181.333l-31.944 68.889c-7.778 24.667-14.444 44.889-20.444 44.889h-1.222c-6.056 0-12-20.833-19.222-44.889l-31.278-68.889h104.111zM966.5 257.833l-58.944 68.333-111.111-130.889v725.611h-113.778v-725.889l-91.667 131.167-47.944-68.333 211.333-247.167 2.667 0.389 1.389-0.389zM170.667 573.944l170.667 301.333v-11.278h-170.667v56.889h284.444v-25.722l-227.556-298.278v39.556h227.556v-113.778h-284.444v51.278z" />
<glyph unicode="&#xe651;" glyph-name="e-ss86-filter" d="M817.278 797.611l-575.556 5.167c-74.167 0.611-104.944-36.056-68.222-81.667l75.611-93.722c36.611-45.5 81.833-120.167 118.556-165.722l33.889-60.611v-295.056c0-20.889 46.778-39.278 67.611-39.278h119.778c20.944 0 11.944 18.389 11.944 39.278v301l56.444 52.056c37.556 44.944 105.389 118.389 142.889 163.278l80.389 92.556c37.667 44.833 10.833 82.056-63.333 82.722z" />
<glyph unicode="&#xe652;" glyph-name="e-ss87-clear-filter" d="M370.778 242.722l-4.167 2.333-3.667 3c-39.778 32.222-60.278 91.5-22.5 142.5 7.222 8.722 34.278 38.167 79.167 38.167 6.5 0 14.611-1.111 23.278-3.167v138.722l56.444 52.056c37.5 44.889 105.333 118.389 142.889 163.222l80.389 92.556c37.667 44.833 10.889 82-63.389 82.667l-575.5 5.222c-74.111 0.556-104.889-36-68.278-81.611l75.722-93.778c36.5-45.5 81.722-120.222 118.444-165.722l33.944-60.667v-295c0-20.889 46.778-39.278 67.611-39.278h88.5c-12.333 8.667-22 14.889-28.889 18.778zM809.333 367.722c-85.667-53.722-155.5-104-212.167-148.944-68.611 77.722-118.889 119.556-141.167 137.944-41.167 34-69.833 0-69.833 0-25.111-33.944 12.556-64.444 12.556-64.444 36.556-20.611 91.278-64.389 148.722-114.389-91.278-77.889-138.944-135.056-158.944-159.278-33.944-41.278 0-69.833 0-69.833 34.056-25.167 64.444 12.444 64.444 12.444 23.944 42.5 79.222 109.556 139.222 176.889 108.5-97.722 213-202.111 213-202.111-64.389 102.556-123.667 182.5-174.889 244.222 90.389 98.722 179.056 187.5 179.056 187.5z" />
<glyph unicode="&#xe653;" glyph-name="e-ss88-validation" d="M585.143 484.571h-548.571v182.857h438.857v36.571h-475.429v-256h585.143zM36.571 228.571h475.429v36.571h-512v-256h548.571v36.571h-512zM1024 824.686l-73.143 80.457-256-329.143-146.286 146.286-36.571-73.143 182.857-219.429zM768 393.143c-120.686 0-219.429-98.743-219.429-219.429s98.743-219.429 219.429-219.429 219.429 98.743 219.429 219.429-98.743 219.429-219.429 219.429zM771.657-16.457c-106.057 3.657-190.171 87.771-190.171 190.171 0 43.886 18.286 84.114 43.886 117.029l263.314-263.314c-32.914-25.6-73.143-43.886-117.029-43.886zM910.629 56.686l-263.314 263.314c32.914 25.6 73.143 43.886 117.029 43.886 102.4 0 186.514-84.114 186.514-186.514 3.657-47.543-10.971-87.771-40.229-120.686z" />
<glyph unicode="&#xe654;" glyph-name="e-ss89-clear-rules" d="M2.116 891.733h887.467v-68.267h-887.467v68.267zM2.116 686.933h887.467v-68.267h-887.467v68.267zM2.116 482.133h614.4v-68.267h-614.4v68.267zM70.383 277.333h341.333v-68.267h-341.333v68.267zM2.116 72.533h546.133v-68.267h-546.133v68.267zM2.116 891.733h68.267v-887.467h-68.267v887.467zM821.316 891.733h68.267v-273.067h-68.267v273.067zM206.916 891.733h68.267v-819.2h-68.267v819.2zM411.716 891.733h68.267v-887.467h-68.267v887.467zM616.516 891.733h68.267v-409.6h-68.267v409.6zM591.568 314.795l202.509-202.681-86.298-86.224-202.509 202.681 86.298 86.224zM848.783 572.115l202.643-202.643-225.234-225.234-202.643 202.643 225.234 225.234z" />
<glyph unicode="&#xe655;" glyph-name="e-ss89-data-validation" d="M776.281 456.719h1.25v0.875zM708.375 480h-484.375v96h440.094l-3.094 6.141 36.875 25.859h-505.875v-160h531.438zM728.062 602.453l-26.531-19.016 33-72.25 14.812-32.5 178.719 128-14.844 32.516-152.187-108.953zM701.156 229.563c-7.781 8.125-13.656 26.438-18.594 26.438h-458.562v96h454.969c5.094 0 12.188 32 21.469 32h-508.437v-160h516.406c-2.406 0-4.969 3.25-7.25 5.562zM831.312 357.656c-29.688 30.688-77.844 30.688-107.438 0-29.719-30.781-29.719-80.656-0.062-111.438 29.656-30.688 77.812-30.688 107.562-0.031 29.594 30.812 29.594 80.688-0.062 111.469zM735.406 345.625c20.781 21.594 53.188 23.75 76.469 6.812l-83.031-85.969c-16.437 24.062-14.25 57.594 6.563 79.156zM819.812 258.25c-21.406-22.156-55.031-23.875-78.375-5.406l83.5 86.562c17.938-24.219 16.219-59-5.125-81.156z" />
<glyph unicode="&#xe656;" glyph-name="e-ss91-Size" horiz-adv-x="835" d="M0 690.526h53.895v-727.579h-53.895v-26.947h134.737v26.947h-53.895v727.579h53.895v26.947h-134.737zM808.421 906.105v-53.895h-592.842v53.895h-26.947v-134.737h26.947v53.895h592.842v-53.895h26.947v134.737zM630.568 701.305l-10.779-10.779v26.947h-431.158v-781.474h646.737v565.895h-8.084l-196.716 199.411zM789.558 501.895h-169.768v169.768l169.768-169.768zM808.421-37.053h-592.842v727.579h377.263v-215.579h215.579v-512z" />
<glyph unicode="&#xe657;" glyph-name="e-ss92-a4" d="M284.444 792.86h455.111v-56.889h-455.111v56.889zM284.444 167.083h455.111v-56.889h-455.111v56.889zM284.444 735.972h56.889v-625.778h-56.889v625.778zM682.667 792.86h56.889v-682.667h-56.889v682.667z" />
<glyph unicode="&#xe658;" glyph-name="e-ss93-legal" d="M227.556 849.749h455.111v-56.889h-455.111v56.889zM227.556 110.194h512v-56.889h-512v56.889zM227.556 800.484h56.889v-690.29h-56.889v690.29zM682.667 849.749h56.889v-739.556h-56.889v739.556z" />
<glyph unicode="&#xe659;" glyph-name="e-ss94-letter" d="M284.444 792.86h455.111v-56.889h-455.111v56.889zM284.444 167.083h455.111v-56.889h-455.111v56.889zM284.444 735.972h56.889v-625.778h-56.889v625.778zM682.667 735.972h56.889v-625.778h-56.889v625.778z" />
<glyph unicode="&#xe65a;" glyph-name="e-ss95-name-manager" d="M96 128h608v224h-608v-224zM128 320h544v-160h-544v160zM736 340v-192l128 120v208zM161.594 460l-56-64h56zM596.219 600l-316-0.219c-16.531 2.781-38.703-0.609-51.109-9.781-24.5-18.109-37.109-52.078-37.109-58v-116h45.594l-0.156 115.828c0.953 6.703 5.953 28.969 17.562 37.484 5.406 3.969 11.938 6.688 22.594 6.688h305.375l121.75-125.766c1.656-3.219 5.75-14.438 2.906-21.891-3-7.922-13.844-13.5-22.438-15.969l8.812-31.25c22.688 6.469 37.344 17.781 43.531 34.125 9.125 24.016-4.812 46.922-6.438 49.469l-134.875 135.281zM770.281 504.672l1.562-3.484c-0.625-1.469-1.719-4.578-3.562-7.344l26.625-18.25c9.344 14 12 26.125 7.969 36.547-2.562 6.672-7.375 14.984-12.156 17.469l-138.5 142.391h-332.219v-32h318.969l131.313-135.328zM617.594 444c0 26.469-21.531 48-48 48s-48-21.531-48-48 21.531-48 48-48 48 21.531 48 48zM553.594 444c0 8.828 7.188 16 16 16s16-7.172 16-16-7.188-16-16-16-16 7.172-16 16zM785.938 578.281c-0.562-1-0.812-1.656-1.656-2.938l26.625-17.75c9.344 14 12 23.75 7.969 34.188-2.562 6.656-7.375 8.469-12.156 10.969l-138.5 133.25h-348.219v-32h334.969l130.969-125.719z" />
<glyph unicode="&#xe65b;" glyph-name="e-ss96-define-name" d="M276.722 736l-219.833-171.556v-235.667l252.111-161.667h658.111v568.889h-690.389zM910.222 224h-583.667l-212.778 134.889v181.111l185.611 139.111h610.833v-455.111zM266.722 467.889c0-41.833 34.056-75.889 75.889-75.889 41.889 0 75.944 34.056 75.944 75.889 0 41.889-34.056 75.889-75.944 75.889-41.833 0-75.889-34-75.889-75.889zM342.611 501.111c18.333 0 33.278-14.889 33.278-33.222s-14.944-33.222-33.278-33.222-33.222 14.889-33.222 33.222 14.889 33.222 33.222 33.222zM512 565.333h284.444v-56.889h-284.444v56.889zM512 394.667h284.444v-56.889h-284.444v56.889z" />
<glyph unicode="&#xe65c;" glyph-name="e-ss97-use-in-formula" d="M341.333 394.667h-120.778l-163.667 185.5v109.611l106.167 160h690.278v-398.222h-56.889v341.333h-604.833l-77.833-124.778v-60.444l129.444-156.111h98.111zM625.778 423.444v28.111h-76.556c9.556 57 22.278 102.111 38.444 132.944 16.722 32.667 35.833 48.389 57.611 48.389 8.056 0 13.556-1.667 16.333-4.667 2.778-3.111 2.556-7.333-0.833-12.556-6.889-11.389-7.722-22.389-2.389-33.333 5.167-11 14-16.5 26.111-16.5 9.222 0 17.056 3.222 23.611 9.778 6.389 6.556 9.667 14.556 9.667 24.111 0 14.444-6.611 26.389-19.722 36.056-13.278 9.444-29.667 14.167-49.333 14.167-38.111 0-71.444-18.389-100.278-58-23.722-33.167-44.389-83.389-61.889-140.389h-71.444l-5.444-56.889h70.611l-70.944-324.833c-10.056-45.944-20.833-71.667-32.5-91.222-11.556-19.611-25.944-25.889-43-25.889-6.944 0-11.667 3.833-14.111 7.722-2.333 4-2 9.778 1.389 15.889 5.944 10.667 6 21.278 0.222 30.611-5.778 9.5-15 14.444-27.389 14.444-7.889 0-14.667-3.111-20.333-9.611-5.611-6.333-8.444-14.111-8.444-23.667 0.5-13.5 6.333-25 17.833-34.389s25.5-14.167 42.333-14.167c35.667 0 67 19.056 93.944 56.944 27 37.889 48.278 78.944 64.111 151.778l60.889 246.389h81.5v28.778zM905.111 360c-5 6.444-12.778 9.333-23.222 9.333-9.944 0-20.667-4.5-32.111-13.611-11.444-9.056-23-22-34.944-39.056l-27.333-40.111-10.833 46.222c-4.167 18.111-8.5 30.056-13.111 36.722-4.389 6.5-10.611 9.722-18.667 9.722-7.222 0-17.167-1.667-29.556-4.889-12.5-3.222-29.611-8.667-51.167-16l1.833-10.222c8.278 2.5 15.167 4.444 20.389 5.389 5.444 1 10.278 1.444 14.611 1.444 7.667 0 13.333-2.278 16.889-7.278 3.611-4.778 7.333-14.944 11.278-30.111l20.667-86-57.833-84.111c-4.278-6.5-9.056-12.056-14.167-16.444-5.278-4.556-9.222-7-11.944-7-5.056 0-11 2.111-18.111 6.333-7.111 4.111-13.222 6.111-18.278 6.111-5 0-9.833-1.5-14.111-4.278-4.444-2.778-7.222-6.167-8.278-9.944-2.611-10.222-1.056-18.833 4.944-25.389 5.944-6.611 14.833-9.944 26.5-9.944 10.111 0 20.611 4.333 31.556 13.167 11 8.611 22.556 21.889 34.778 39.667l49.944 73.222 19.778-80.056c4.222-17 9.222-28.944 14.778-35.833 5.5-6.778 12.889-10.167 22-10.167 12.167 0 24.444 5.722 36.444 17.056 12.333 11.167 26.667 30.056 42.778 56.278l-10.944 5.5c-10.111-15.389-18.333-26.611-24.778-33.278-6.611-6.833-12.278-10.278-17.056-10.278-4.389 0-8.111 1.944-11.333 6.056-3.278 4-5.667 10.111-7.556 18.556l-26.889 119.611 34.778 50.667c6 8.833 11.056 15.278 15.278 19.333 4.389 3.889 7.889 6.056 10.833 6.056 6 0 11.778 6.111 17.278 2.667 5.333-3.444 11.056 2.667 17.056 2.667h1.333c4.389 0 8.5-6.444 12.556-3.556 4.111 2.667 6.667 2.111 7.667 5.944 2.389 9.889 1.222 13.778-3.722 19.833zM331.222 640.056c0-30.111-24.444-54.556-54.556-54.556-29.889 0-54.278 24.444-54.278 54.556s24.389 54.611 54.278 54.611c30.111 0 54.556-24.5 54.556-54.611z" />
<glyph unicode="&#xe65d;" glyph-name="e-ss98-print" d="M555.904 81.888h31.648l-54.080 81.856 49.056 76.32h-29.792l-39.712-70.816-40.704 70.816h-30.24l49.28-75.264-54.944-82.912h31.264l0.032 0.064 43.776 0.352 22.4 20.96h-53.056l30.976 50.368zM320 896h352v-32h-352v32zM640 864h32v-256h-32v256zM320 896h32v-288h-32v288zM851.296 668.032h-143.072c-7.84-17.536-25.312-29.792-45.696-29.792h-323.424c-20.416 0-37.888 12.256-45.696 29.792h-120.768c-42.272 0-76.64-34.4-76.64-76.704v-320.896c0-42.304 34.368-76.672 76.64-76.672h107.68v155.392c0 30.592 22.368 55.456 50.048 55.456h374.912c27.68 0 50.048-24.864 50.048-55.456v-155.392h95.872c42.368 0 76.736 34.368 76.736 76.672v320.896c0.032 42.368-34.336 76.704-76.64 76.704zM256 512h-96v96h96v-96zM352 352h320v-32h-320v32zM640 352h32v-320h-32v320zM352 32h320v-32h-320v32zM352 352h32v-352h-32v352z" />
<glyph unicode="&#xe65e;" glyph-name="e-ss99-print-select" d="M320 896h352v-32h-352v32zM640 864h32v-256h-32v256zM320 896h32v-288h-32v288zM851.328 668.032h-143.072c-7.84-17.536-25.312-29.792-45.696-29.792h-323.456c-20.416 0-37.888 12.256-45.696 29.792h-120.768c-42.272 0-76.64-34.4-76.64-76.704v-320.896c0-42.304 34.368-76.672 76.64-76.672h107.712v155.392c0 30.592 22.368 55.456 50.048 55.456h374.912c27.68 0 50.048-24.864 50.048-55.456v-155.392h95.872c42.368 0 76.736 34.368 76.736 76.672v320.896c0 42.368-34.336 76.704-76.64 76.704zM256 512h-96v96h96v-96zM352 352h320v-32h-320v32zM640 352h32v-320h-32v320zM352 32h320v-32h-320v32zM352 352h32v-352h-32v352zM1024-64h-96v32h64v32h32zM832-64h-128v32h128v-32zM576-64h-128v32h128v-32zM320-64h-128v32h128v-32zM64-64h-64v64h32v-32h32zM32 128h-32v128h32v-128zM32 384h-32v128h32v-128zM32 640h-32v128h32v-128zM32 864h-32v96h64v-32h-32zM832 928h-128v32h128v-32zM576 928h-128v32h128v-32zM320 928h-128v32h128v-32zM1024 864h-32v64h-64v32h96zM1024 128h-32v128h32v-128zM1024 384h-32v128h32v-128zM1024 640h-32v128h32v-128z" />
<glyph unicode="&#xe65f;" glyph-name="e-ss100-excel" d="M538.112 256h84.096l-143.488 215.424 130.080 200.576h-79.040l-105.28-187.968-108.096 187.968h-80.288l130.72-197.728-145.76-218.272h83.008l0.064-0.384 116.192 4.8 59.456 59.584h-140.864l82.24 130.080zM768 40.128c0-7.392 5.28-8.128-2.080-8.128h-661.824c-7.36 0-8.096 0.736-8.096 8.128v849.152c0 7.36 0.736 6.72 8.096 6.72h661.792c7.392 0 2.112 0.64 2.112-6.72v-697.28h32v697.28c0 22.112-11.936 38.72-34.080 38.72h-661.824c-22.112 0-40.096-16.608-40.096-38.72v-849.152c0-22.144 17.984-40.128 40.096-40.128h661.792c22.176 0 34.112 17.984 34.112 40.128v23.872h-32v-23.872zM1014.112 145.248l-27.456 22.944c-13.28 11.232-35.168 29.408-48.352 40.512l-27.456 22.944c-13.28 11.104-24.384-2.304-24.576-24.512l-0.288-47.136h-162.336c-11.296 0-19.648 0-19.648-11.328v-44.8c0-11.264 8.352-7.872 19.616-7.872h161.568l-0.48-48.704c-0.096-22.048 10.784-34.272 24.288-23.296l27.744 20.768c13.568 10.848 35.68 27.904 49.184 38.88l27.872 21.888c13.504 11.008 13.6 28.736 0.32 39.712z" />
<glyph unicode="&#xe660;" glyph-name="e-ss101-csv" d="M736 64v-25.248c0-7.392 5.28-6.752-2.080-6.752h-661.792c-7.392 0-8.128-0.64-8.128 6.752v849.152c0 7.36 0.736 8.096 8.128 8.096h661.792c7.36 0 2.080-0.736 2.080-8.096v-695.904h32v695.904c0 22.112-11.936 40.096-34.080 40.096h-661.792c-22.112 0-40.128-17.984-40.128-40.096v-849.152c0-22.112 18.016-38.752 40.128-38.752h661.792c22.144 0 34.080 16.64 34.080 38.752v25.248h-32zM982.112 143.872l-27.456 22.944c-13.28 11.232-35.168 29.44-48.352 40.512l-27.456 22.944c-13.28 11.136-24.384-1.632-24.576-23.776l-0.288-46.496h-162.336c-11.296 0-19.648-1.376-19.648-12.672v-44.768c0-11.296 8.352-6.56 19.616-6.56h161.568l-0.48-49.408c-0.096-22.048 10.784-34.592 24.288-23.584l27.744 20.64c13.568 10.816 35.68 27.776 49.184 38.752l27.872 21.856c13.504 10.944 13.6 28.672 0.32 39.616zM274.656 379.744c-11.872-5.312-34.304-9.696-59.84-9.696-69.504 0-113.952 42.208-113.952 109.984 0 62.912 43.104 114.4 123.2 114.4 17.6 0 36.96-3.072 51.040-8.352l-10.56-49.728c-7.936 3.52-19.808 6.624-37.376 6.624-35.2 0-58.080-25.088-57.632-60.288 0-39.584 26.4-60.256 58.944-60.256 15.84 0 28.16 2.656 38.272 6.592l7.904-49.28zM311.2 432.96c12.32-7.488 37.856-16.288 57.632-16.288 20.224 0 28.608 7.040 28.608 18.016s-6.592 16.288-31.68 24.64c-44.448 14.944-61.6 39.168-61.152 64.672 0 40.032 34.304 70.4 87.552 70.4 25.088 0 47.52-5.728 60.704-12.32l-11.904-46.208c-9.664 5.28-28.16 12.32-46.624 12.32-16.288 0-25.504-6.624-25.504-17.6 0-10.112 8.352-15.392 34.752-24.64 40.928-14.080 58.080-34.752 58.528-66.432 0-40.032-31.68-69.504-93.28-69.504-28.16 0-53.248 6.144-69.504 14.944l11.872 48zM552.32 589.568l29.024-99.872c5.28-18.016 9.248-35.2 12.352-52.352h1.312c3.488 17.6 7.040 33.888 11.872 52.352l27.68 99.872h70.4l-80.064-215.136h-66.88l-78.304 215.136h72.608z" />
<glyph unicode="&#xe661;" glyph-name="e-ss102-newcomment" horiz-adv-x="1184" d="M192 512h64v147.2l102.4-102.4 44.8 44.8-102.4 102.4h147.2v64h-147.2l102.4 102.4-44.8 44.8-102.4-102.4v147.2h-64v-147.2l-102.4 105.6-48-48 105.6-102.4h-147.2v-64h147.2l-102.4-102.4 44.8-44.8 102.4 102.4v-147.2zM160 736c0 35.2 28.8 64 64 64s64-28.8 64-64c0-35.2-28.8-64-64-64s-64 28.8-64 64zM480 736v-32h672v-480h-256v-256h-768v544h-32v-576h832v32l12.8-12.8 224 224-12.8 12.8h32v544h-704zM928-9.6v201.6h201.6l-201.6-201.6z" />
<glyph unicode="&#xe662;" glyph-name="e-ss103-edit-comment" d="M549.6 345.28l-50.592 42.72-50.752 42.72-11.648-65.248-11.552-65.248 62.24 22.528zM719.634 799.122l139.249-117.275-240.653-285.742-139.249 117.275 240.653 285.742zM922.016 704l-25.792-30.656-1.568 1.312-2.176-2.656h67.52v-352h-192v-192h-704v544h506.688l26.976 32h-565.664v-608h814.784l145.216 184v424h-69.984zM800 114.976v173.024h120.928l-120.928-173.024zM922.56 754.368c32.416 38.304 27.52 95.968-10.944 128.256-38.4 32.352-95.968 27.456-128.256-11.008l-30.176-35.808 139.2-117.344 30.176 35.904z" />
<glyph unicode="&#xe663;" glyph-name="e-ss104-deletcomment" horiz-adv-x="1184" d="M480 736v-32h672v-480h-256v-256h-768v416h-32v-448h832v32l12.8-12.8 224 224-12.8 12.8h32v544h-704zM928-9.6v201.6h201.6l-201.6-201.6zM294.4 672c32-19.2 57.6-41.6 83.2-67.2l185.6-192-198.4 297.6c-6.4 9.6-3.2 22.4 6.4 28.8l204.8 156.8-252.8-124.8-246.4 166.4c-25.6 19.2-64 0-64-35.2v0c0-32 22.4-73.6 51.2-92.8l153.6-92.8c-38.4-28.8-76.8-64-108.8-102.4l-99.2-118.4c-19.2-22.4-19.2-54.4 0-76.8 25.6-25.6 64-25.6 86.4 3.2l198.4 249.6z" />
<glyph unicode="&#xe664;" glyph-name="e-ss105-nextcomment" horiz-adv-x="1184" d="M704 736v-32h448v-480h-256v-256h-768v640h-32v-672h832v32l12.8-12.8 224 224-12.8 12.8h32v544h-480zM928-9.6v201.6h201.6l-201.6-201.6zM448 608h-32v-32h-32v-32h-32v-32h-32v-32h160v32h32v32h32v32h32v32h32v32h32v32h32v64h-32v32h-32v32h-32v32h-32v32h-32v32h-32v32h-160v-32h32v-32h32v-32h32v-32h32v-32h-416v-128h416z" />
<glyph unicode="&#xe665;" glyph-name="e-ss106-Previouscomment" horiz-adv-x="1184" d="M704 736v-32h448v-480h-256v-256h-768v608h-32v-640h832v32l12.8-12.8 224 224-12.8 12.8h32v544h-480zM928-9.6v201.6h201.6l-201.6-201.6zM96 672v-32h32v-32h32v-32h32v-32h32v-32h160v32h-32v32h-32v32h-32v32h-32v32h416v128h-416v32h32v32h32v32h32v32h32v32h-160v-32h-32v-32h-32v-32h-32v-32h-32v-32h-32v-32h-32v-64h32v-32z" />
<glyph unicode="&#xe666;" glyph-name="e-ss107-Sho-hidecommetn" horiz-adv-x="1216" d="M64 896h128v64h-192v-128h64zM1216 960h-192v-64h76.8l-1056-870.4 19.2-25.6h-64v-64h896v64l25.6-25.6 256 256-25.6 25.6h64v704zM896 44.8v211.2h211.2l-211.2-211.2zM1152 320h-320v-320h-716.8l1036.8 857.6v-537.6zM256 960h128v-64h-128v64zM448 960h128v-64h-128v64zM640 960h128v-64h-128v64zM832 960h128v-64h-128v64zM0 768h64v-128h-64v128zM0 576h64v-128h-64v128zM0 384h64v-128h-64v128zM0 192h64v-128h-64v128z" />
<glyph unicode="&#xe667;" glyph-name="e-ss108-showallcomments" horiz-adv-x="1280" d="M960 960h-960v-768h64v704h896zM1152 832h-1024v-768h64v704h960zM1216 704h-960v-768h768v64l25.6-25.6 192 192-25.6 25.6v64h-256v-256h-640v640h896v-384h64v448h-64zM1171.2 192l-147.2-147.2v147.2h147.2z" />
<glyph unicode="&#xe668;" glyph-name="e-ss109-insert" d="M704 864h-672v-192h672v192zM352 704h-288v128h288v-128zM672 704h-288v128h288v-128zM320 608v-192h672v192h-672zM640 448h-288v128h288v-128zM960 448h-288v128h288v-128zM341.376 352h-309.376v-352h672v352h-362.624zM352 32h-288v128h288v-128zM352 192h-288v128h288v-128zM384 320h288v-128h-288v128zM384 160h288v-128h-288v128zM128 544h160v-32h-160v32zM64 544h64v-32h-64v32zM96 576h32v-32h-32v32zM128 608h32v-32h-32v32zM96 512h32v-32h-32v32zM128 480h32v-32h-32v32z" />
<glyph unicode="&#xe669;" glyph-name="e-ss110-insert-cells-d" d="M246.579 410.249l-74.342 71.885h239.479v68.267h-239.548l74.411 69.769-38.844 36.454-140.151-156.877 0.41-17.613h-0.41l140.151-125.338zM2.116 960h750.933v-68.267h-750.933v68.267zM2.116 755.2h750.933v-68.267h-750.933v68.267zM479.983 618.667h546.133v-68.267h-546.133v68.267zM479.983 413.867h546.133v-68.267h-546.133v68.267zM2.116 960h68.267v-273.067h-68.267v273.067zM684.783 960h68.267v-273.067h-68.267v273.067zM957.85 618.667h68.267v-273.067h-68.267v273.067zM479.983 618.667h68.267v-273.067h-68.267v273.067zM2.116 277.333h750.933v-68.267h-750.933v68.267zM2.116 4.267h750.933v-68.267h-750.933v68.267zM684.783 277.333h68.267v-273.067h-68.267v273.067zM2.116 277.333h68.267v-273.067h-68.267v273.067zM343.45 277.333h68.267v-273.067h-68.267v273.067zM343.45 960h68.267v-273.067h-68.267v273.067z" />
<glyph unicode="&#xe66a;" glyph-name="e-ss111-insert-sheet-rows" d="M280.644 359.049l-74.274 54.818h205.346v68.267h-205.414l74.342 86.835-38.775 44.988-140.151-169.711 0.41-30.379h-0.41l140.151-116.804zM479.983 140.8v-136.533h-477.867v-68.267h546.133v273.067h-546.133v-68.267zM479.983 891.733v-136.533h-477.867v-68.267h546.133v273.067h-546.133v-68.267zM479.983 345.6h477.867v68.267h-409.6v136.533h409.6v68.267h-477.867z" />
<glyph unicode="&#xe66b;" glyph-name="e-ss112-insert-sheet-columns" d="M408.098 715.605l71.885 74.274v-239.479h68.267v239.548l69.769-74.342 36.454 38.775-156.877 140.151-17.613-0.41v0.41l-125.338-140.151zM957.85 474.556h-136.533v485.444h-68.267v-546.133h273.067v546.133h-68.267zM206.916 482.133h-136.533v477.867h-68.267v-546.133h273.067v546.133h-68.267zM411.716 482.133v-477.867h68.267v409.6h136.533v-409.6h68.267v477.867z" />
<glyph unicode="&#xe66c;" glyph-name="e-ss113-insertsheet-d" d="M860.16-2.56l-75.093 75.093h238.933v68.267h-238.933l75.093 68.267-40.96 40.96-136.533-157.013v-20.48l136.533-122.88zM0 960h887.467v-68.267h-887.467v68.267zM0 755.2h887.467v-68.267h-887.467v68.267zM0 550.4h887.467v-68.267h-887.467v68.267zM68.267 345.6h819.2v-68.267h-819.2v68.267zM341.333 140.8h204.8v-68.267h-204.8v68.267zM75.093 140.8h197.973v-68.267h-197.973v68.267zM0 960h68.267v-819.2h-68.267v819.2zM819.2 960h68.267v-682.667h-68.267v682.667zM204.8 960h68.267v-682.667h-68.267v682.667zM409.6 960h68.267v-682.667h-68.267v682.667zM614.4 960h68.267v-682.667h-68.267v682.667zM546.133 277.333h68.267v-136.533h-68.267v136.533zM273.067 209.067h68.267v-68.267h-68.267v68.267zM273.067 277.333h68.267v-68.267h-68.267v68.267zM614.4 140.8h68.267v-68.267h-68.267v68.267z" />
<glyph unicode="&#xe66d;" glyph-name="e-ss114-delete" d="M640 249.6v-57.6h-288v128h160c0 6.4 0 32 3.2 32h-515.2v-352h672v252.8c-32-6.4-32 0-32-3.2zM320 32h-288v128h288v-128zM320 192h-288v128h288v-128zM640 32h-288v128h288v-128zM889.6 528c41.6 60.8 105.6 163.2 128 214.4 0 0 9.6 19.2 6.4 25.6 0 6.4-12.8 12.8-28.8 0 0 0-70.4-86.4-150.4-179.2-96 121.6-144 147.2-208 176-83.2 35.2-83.2-35.2-83.2-35.2 0-28.8 25.6-38.4 25.6-38.4 54.4-28.8 128-83.2 128-83.2 28.8-19.2 54.4-51.2 83.2-80-28.8-32-57.6-57.6-83.2-80 0 0-73.6-54.4-128-83.2 0 0-25.6-12.8-25.6-38.4 0 0 0-73.6 83.2-35.2 60.8 28.8 108.8 54.4 208 176 83.2-89.6 150.4-179.2 150.4-179.2 12.8-12.8 25.6-6.4 28.8 0 0 6.4-6.4 25.6-6.4 25.6-19.2 48-83.2 147.2-128 214.4zM345.6 672h166.4v32h-128v160h256v-32h32v64h-672v-224h345.6zM32 864h320v-160h-320v160zM320 608v-192h233.6l86.4 64v96l-54.4 32h-240z" />
<glyph unicode="&#xe66e;" glyph-name="e-ss115-deletecells-d" d="M850.944 584.533c42.257 61.508 106.564 159.539 124.996 210.261 0 0 8.875 18.705 7.373 25.122-1.502 6.281-13.995 14.95-26.078 0 0 0-68.676-86.426-149.094-175.172-95.71 118.443-143.77 147.388-205.005 173.466-83.081 35.294-82.876-34.27-82.876-34.27-0.205-26.146 24.030-38.571 24.030-38.571 52.634-26.146 124.587-81.852 124.587-81.852 26.010-21.982 54.409-49.493 83.012-78.985-28.604-29.423-56.934-57.003-83.012-78.985 0 0-72.021-55.637-124.587-81.852 0 0-24.166-12.425-24.030-38.502 0 0-0.137-69.632 82.876-34.27 61.235 26.078 109.295 55.023 204.937 173.466 80.418-88.747 149.094-175.172 149.094-175.172 12.083-15.019 24.508-6.349 26.078 0 1.502 6.417-7.373 25.054-7.373 25.054-18.364 50.722-82.739 148.753-124.928 210.261zM616.516 550.4v68.267h-273.067v-273.067h163.84v68.267h-109.227v136.533zM753.050 891.733v68.267h-750.933v-273.067h477.867v68.267h-68.267v136.533h341.333zM343.45 755.2h-273.067v136.533h273.067v-136.533zM684.783 277.333h-682.667v-341.333h750.933v341.333h-68.267zM70.383 4.267v204.8h273.067v-204.8h-273.067zM684.783 4.267h-273.067v204.8h273.067v-204.8z" />
<glyph unicode="&#xe66f;" glyph-name="e-ss116-delete-sheet-rows-d" d="M536.576 427.998c11.264 9.626 11.674 21.094 11.674 33.382v59.87c0 12.834-1.707 24.849-13.995 35.362-0.068 0 13.995 3.55 13.995 8.602v-147.661c0 6.144-11.878 10.308-11.674 10.445zM830.464 491.281c62.669 91.341 158.037 236.544 185.276 311.842 0 0 13.244 27.785 10.991 37.342-2.185 9.353-20.685 22.050-38.639 0 0 0-101.786-128.273-220.979-259.823-141.995 175.65-213.197 218.59-304.060 257.229-123.017 52.361-122.743-50.859-122.743-50.859-0.273-38.775 35.499-57.207 35.499-57.207 78.029-38.707 184.798-121.242 184.798-121.242 38.502-32.631 80.691-73.455 123.085-117.282-42.394-43.486-84.514-84.378-123.085-117.146 0 0-106.769-82.466-184.798-121.242 0 0-35.772-18.364-35.567-57.139 0 0-0.273-103.287 122.812-50.927 90.863 38.775 162.065 81.647 303.991 257.365 119.194-131.618 220.979-259.823 220.979-259.823 18.022-22.255 36.454-9.489 38.639 0 2.253 9.557-10.991 37.274-10.991 37.274-27.102 75.162-122.539 220.433-185.207 311.637zM275.183 686.933h-68.267v136.533h-204.8v68.267h273.067zM275.183 4.267h-273.067v68.267h204.8v136.533h68.267zM70.383 550.4h375.194c-12.902 68.267-26.487 68.267-40.209 68.267h-403.251v-341.333h362.018c26.897 68.267 55.501 68.267 81.237 68.267h-374.989v204.8z" />
<glyph unicode="&#xe670;" glyph-name="e-ss117-delete-sheet-columns-d" d="M495.070 425.54c9.557-11.264 21.026-11.674 33.382-11.674h59.802c12.902 0 24.917 1.707 35.362 13.995 0 0.068 3.55-13.995 8.602-13.995h-147.661c6.144 0 10.377 11.878 10.513 11.674zM558.285 130.765c91.341-62.669 236.544-158.037 311.842-185.276 0 0 27.785-13.244 37.342-10.991 9.353 2.185 22.118 20.685 0 38.639 0 0-128.273 101.786-259.823 220.979 175.582 141.926 218.59 213.129 257.229 303.991 52.361 123.085-50.859 122.812-50.859 122.812-38.707 0.273-57.207-35.567-57.207-35.567-38.707-77.961-121.242-184.73-121.242-184.73-32.631-38.571-73.455-80.691-117.282-123.085-43.486 42.394-84.309 84.514-117.077 123.085 0 0-82.466 106.769-121.31 184.798 0 0-18.364 35.772-57.139 35.567 0 0-103.287 0.273-50.927-122.812 38.775-90.863 81.715-162.065 257.365-303.991-131.618-119.194-259.823-220.979-259.823-220.979-22.255-18.022-9.489-36.454 0-38.639 9.489-2.253 37.205 10.991 37.205 10.991 75.23 27.102 220.501 122.539 311.706 185.207zM753.050 686.933v68.267h136.533v204.8h68.267v-273.067zM70.383 686.933v273.067h68.267v-204.8h136.533v-68.267zM616.516 891.733v-376.081c68.267 12.902 68.267 26.487 68.267 40.209v404.139h-341.333v-362.906c68.267-26.897 68.267-55.569 68.267-81.306v375.945h204.8z" />
<glyph unicode="&#xe671;" glyph-name="e-ss118-delete-sheet-d" d="M728.337 149.675c75.366-51.814 195.516-130.731 257.775-153.259 0 0 22.938-10.923 30.857-9.079 7.782 1.911 18.295 17.135 0 32.085 0 0-105.95 84.036-214.767 182.682 145.203 117.419 180.634 176.265 212.719 251.358 43.281 101.786-42.052 101.581-42.052 101.581-32.154 0.205-47.309-29.491-47.309-29.491-32.017-64.444-100.284-152.713-100.284-152.713-27.034-31.881-60.689-66.697-96.87-101.649-36.045 35.021-69.837 69.769-96.87 101.649 0 0-68.267 88.269-100.352 152.713 0 0-15.155 29.696-47.172 29.491 0 0-85.47 0.205-42.121-101.581 31.949-75.093 67.447-133.939 212.787-251.29-108.817-98.509-214.835-182.75-214.835-182.75-18.364-14.95-7.851-30.106 0-32.085 7.851-1.843 30.788 9.079 30.788 9.079 62.123 22.528 182.204 101.444 257.707 153.259zM206.916 823.467h68.267v-614.4h-68.267v614.4zM411.716 823.467h68.267v-204.8h-68.267v204.8zM616.516 823.467h68.267v-204.8h-68.267v204.8zM70.383 686.933h750.933v-68.267h-750.933v68.267zM2.116 891.733v-887.467h409.6v68.267h-341.333v750.933h750.933v-204.8h68.267v273.067zM70.383 482.133h273.067v-68.267h-273.067v68.267zM70.383 277.333h341.333v-68.267h-341.333v68.267z" />
</font>
</defs>
</svg>
